PXT24

PXT24

30.Rock.S03.1080p.BluRay.x265-KONTRAST
  • Category
    : TV
  • Type
    : HEVC/x265
  • Language
    : English
  • Total size
    : 8.90 GB
  • Date uploaded
    : 10 Feb ,2024

INFO

General
Complete name : 30.Rock.S03E01.1080p.BluRay.x265-KONTRAST.mp4
Format : MPEG-4
Format profile : Base Media
Codec ID : isom (isom/iso2/mp41)
File size : 416 MiB
Duration : 21 min 36 s
Overall bit rate : 2 693 kb/s
Writing application : Hybrik 1.247.21

Video
ID : 1
Format : HEVC
Format/Info : High Efficiency Video Coding
Format profile : Main@L4@Main
Codec ID : hvc1
Codec ID/Info : High Efficiency Video Coding
Duration : 21 min 36 s
Bit rate : 2 464 kb/s
Width : 1 920 pixels
Height : 1 080 pixels
Display aspect ratio : 16:9
Frame rate mode : Constant
Frame rate : 23.976 (24000/1001) FPS
Color space : YUV
Chroma subsampling : 4:2:0
Bit depth : 8 bits
Scan type : Progressive
Bits/(Pixel*Frame) : 0.050
Stream size : 381 MiB (91%)
Language : English
Color range : Limited
Color primaries : BT.709
Transfer characteristics : BT.709
Matrix coefficients : BT.709
Codec configuration box : hvcC

Audio
ID : 2
Format : AAC LC
Format/Info : Advanced Audio Codec Low Complexity
Codec ID : mp4a-40-2
Duration : 21 min 36 s
Source duration : 21 min 37 s
Bit rate mode : Constant
Bit rate : 224 kb/s
Channel(s) : 6 channels
Channel layout : C L R Ls Rs LFE
Sampling rate : 48.0 kHz
Frame rate : 46.875 FPS (1024 SPF)
Compression mode : Lossy
Stream size : 34.6 MiB (8%)
Source stream size : 34.6 MiB (8%)
Language : English
Default : Yes
Alternate group : 1

SCREENSHOTS

30-Rock-S03-E01-1080p-Blu-Ray-x265-KONTRAST-001
30-Rock-S03-E01-1080p-Blu-Ray-x265-KONTRAST-002
30-Rock-S03-E01-1080p-Blu-Ray-x265-KONTRAST-004

===============================================================

PLEASE SEED FOR 48-72H!

===============================================================

30.Rock.S03.1080p.BluRay.x265-KONTRAST

Subs

30.Rock.S03E01.1080p.BluRay.x265-KONTRAST

30.Rock.S03E02.1080p.BluRay.x265-KONTRAST

30.Rock.S03E03.1080p.BluRay.x265-KONTRAST

30.Rock.S03E04.1080p.BluRay.x265-KONTRAST

30.Rock.S03E05.1080p.BluRay.x265-KONTRAST

30.Rock.S03E06.1080p.BluRay.x265-KONTRAST

30.Rock.S03E07.1080p.BluRay.x265-KONTRAST

30.Rock.S03E08.1080p.BluRay.x265-KONTRAST

30.Rock.S03E09.1080p.BluRay.x265-KONTRAST

30.Rock.S03E10.1080p.BluRay.x265-KONTRAST

30.Rock.S03E11.1080p.BluRay.x265-KONTRAST

30.Rock.S03E12.1080p.BluRay.x265-KONTRAST

30.Rock.S03E13.1080p.BluRay.x265-KONTRAST

30.Rock.S03E14.1080p.BluRay.x265-KONTRAST

30.Rock.S03E15.1080p.BluRay.x265-KONTRAST

30.Rock.S03E16.1080p.BluRay.x265-KONTRAST

30.Rock.S03E17.1080p.BluRay.x265-KONTRAST

30.Rock.S03E18.1080p.BluRay.x265-KONTRAST

30.Rock.S03E19.1080p.BluRay.x265-KONTRAST

30.Rock.S03E20.1080p.BluRay.x265-KONTRAST

30.Rock.S03E21.1080p.BluRay.x265-KONTRAST

30.Rock.S03E22.1080p.BluRay.x265-KONTRAST