PXT24

PXT24

Abigail (2024) 1080p 10bit DS4K WEBRip [Hindi AAC 2.0 + English AAC 5.1] Dual Audio HEVC x265 ESub ~TheAvi [ProtonMovies]
  • Category
    : Movies
  • Type
    : Dubs/Dual Audio
  • Language
    : Hindi
  • Total size
    : 1.40 GB
  • Date uploaded
    : 07 Jun ,2024

"Show your support to ProtonMovies"

1920x770c75f5b99d6e44277aa05df0c290d4f40e19a16a885584098b2c28207046bbac2
********************************
"Show your support to ProtonMovies"
"@Team Shadow"
"AlejandroAXL"
We Keep All Torrents. In case of re-seed, please pm Or Comment On Torrent For Re-Seed  
********************************

Format : Matroska
Format version : Version 4
File size : 1.44 GiB
Duration : 1 h 49 min
Overall bit rate : 1 880 kb/s
Frame rate : 23.976 FPS
Movie name : Abigail (2024) 1080p 10bit DS4K WEBRip x265 HEVC [ Hindi BMS AAC 2.0 – English AAC 5.1 ] ESub ~ TheAvi ~ Pahe
Encoded date : 2024-06-07 09:50:33 UTC
Writing application : mkvmerge v81.0 ('Milliontown') 64-bit
Writing library : libebml v1.4.4 + libmatroska v1.7.1 / Lavf58.77.100
Comment : Muxed By TheAvi
Attachments : TheAvi.jpg

Video
ID : 1
Format : HEVC
Format/Info : High Efficiency Video Coding
Format profile : Main 10@L4@High
Codec ID : V_MPEGH/ISO/HEVC
Duration : 1 h 49 min
Bit rate : 1 416 kb/s
Width : 1 920 pixels
Height : 800 pixels
Display aspect ratio : 2.40:1
Frame rate mode : Constant
Frame rate : 23.976 (24000/1001) FPS
Color space : YUV
Chroma subsampling : 4:2:0
Bit depth : 10 bits
Bits/(Pixel*Frame) : 0.038
Stream size : 1.08 GiB (75%)
Title : TG -: @EpitomeQuality
Writing library : x265 3.2+5-gfbe9fef31:[Windows][GCC 9.2.0][64 bit] 10bit
Encoding settings : cpuid=1111039 / frame-threads=5 / numa-pools=32 / wpp / no-pmode / no-pme / no-psnr / no-ssim / log-level=2 / input-csp=1 / input-res=1920x800 / interlace=0 / total-frames=157798 / level-idc=40 / high-tier=1 / uhd-bd=0 / ref=3 / no-allow-non-conformance / repeat-headers / annexb / aud / hrd / info / hash=0 / no-temporal-layers / no-open-gop / min-keyint=24 / keyint=240 / gop-lookahead=0 / bframes=4 / b-adapt=2 / b-pyramid / bframe-bias=0 / rc-lookahead=25 / lookahead-slices=4 / scenecut=40 / radl=0 / no-splice / no-intra-refresh / ctu=64 / min-cu-size=8 / no-rect / no-amp / max-tu-size=32 / tu-inter-depth=1 / tu-intra-depth=1 / limit-tu=0 / rdoq-level=2 / dynamic-rd=0.00 / no-ssim-rd / signhide / no-tskip / nr-intra=0 / nr-inter=0 / no-constrained-intra / no-strong-intra-smoothing / max-merge=3 / limit-refs=1 / limit-modes / me=2 / subme=5 / merange=35 / temporal-mvp / no-hme / weightp / no-weightb / no-analyze-src-pics / deblock=-3:-3 / no-sao / no-sao-non-deblock / rd=4 / selective-sao=0 / early-skip / rskip / no-fast-intra / no-tskip-fast / no-cu-lossless / b-intra / no-splitrd-skip / rdpenalty=0 / psy-rd=2.00 / psy-rdoq=0.00 / no-rd-refine / no-lossless / cbqpoffs=0 / crqpoffs=0 / rc=crf / crf=22.0 / qcomp=0.60 / qpstep=4 / stats-write=0 / stats-read=0 / vbv-maxrate=18000 / vbv-bufsize=17500 / vbv-init=0.9 / crf-max=0.0 / crf-min=0.0 / ipratio=1.40 / pbratio=1.30 / aq-mode=3 / aq-strength=1.00 / cutree / zone-count=0 / no-strict-cbr / qg-size=32 / no-rc-grain / qpmax=69 / qpmin=0 / no-const-vbv / sar=0 / overscan=0 / videoformat=5 / range=0 / colorprim=1 / transfer=2 / colormatrix=1 / chromaloc=0 / display-window=0 / cll=0,0 / min-luma=0 / max-luma=1023 / log2-max-poc-lsb=8 / vui-timing-info / vui-hrd-info / slices=1 / no-opt-qp-pps / no-opt-ref-list-length-pps / no-multi-pass-opt-rps / scenecut-bias=0.05 / no-opt-cu-delta-qp / no-aq-motion / no-hdr / no-hdr-opt / no-dhdr10-opt / no-idr-recovery-sei / analysis-reuse-level=5 / scale-factor=0 / refine-intra=0 / refine-inter=0 / refine-mv=1 / refine-ctu-distortion=0 / no-limit-sao / ctu-info=0 / no-lowpass-dct / refine-analysis-type=0 / copy-pic=1 / max-ausize-factor=1.0 / no-dynamic-refine / no-single-sei / no-hevc-aq / no-svt / no-field / qp-adaptation-range=1.00
Default : Yes
Forced : No
Color range : Limited
Color primaries : BT.709
Matrix coefficients : BT.709

Audio #1
ID : 2
Format : AAC LC
Format/Info : Advanced Audio Codec Low Complexity
Codec ID : A_AAC-2
Duration : 1 h 49 min
Bit rate : 256 kb/s
Channel(s) : 2 channels
Channel layout : L R
Sampling rate : 48.0 kHz
Frame rate : 46.875 FPS (1024 SPF)
Compression mode : Lossy
Delay relative to video : 1 s 60 ms
Stream size : 200 MiB (14%)
Title : Hindi / AAC 2.0 / TheAvi
Language : Hindi
Default : Yes
Forced : No

Audio #2
ID : 3
Format : AAC LC SBR
Format/Info : Advanced Audio Codec Low Complexity with Spectral Band Replication
Commercial name : HE-AAC
Format settings : Explicit
Codec ID : A_AAC-2
Duration : 1 h 49 min
Bit rate : 206 kb/s
Channel(s) : 6 channels
Channel layout : C L R Ls Rs LFE
Sampling rate : 48.0 kHz
Frame rate : 23.438 FPS (2048 SPF)
Compression mode : Lossy
Delay relative to video : 40 ms
Stream size : 161 MiB (11%)
Title : English / AAC 5.1 / TheAvi
Language : English
Default : No
Forced : No

Text #1
ID : 4
Format : UTF-8
Codec ID : S_TEXT/UTF8
Codec ID/Info : UTF-8 Plain Text
Duration : 1 h 44 min
Bit rate : 50 b/s
Frame rate : 0.235 FPS
Count of elements : 1478
Stream size : 38.8 KiB (0%)
Language : English
Default : No
Forced : No

Text #2
ID : 5
Format : UTF-8
Codec ID : S_TEXT/UTF8
Codec ID/Info : UTF-8 Plain Text
Duration : 1 h 49 min
Bit rate : 59 b/s
Frame rate : 0.284 FPS
Count of elements : 1864
Stream size : 47.7 KiB (0%)
Language : English
Default : No
Forced : No


vlcsnap-2024-05-08-02h45m37s269
vlcsnap-2024-05-08-02h45m45s516
vlcsnap-2024-05-08-02h45m50s503
vlcsnap-2024-05-08-02h46m02s586
vlcsnap-2024-05-08-02h46m47s371
vlcsnap-2024-05-08-02h47m18s638
vlcsnap-2024-05-08-02h47m05s321
vlcsnap-2024-05-08-02h47m20s547

Abigail (2024) 1080p 10bit DS4K WEBRip [Hindi AAC 2.0 + English AAC 5.1] Dual Audio HEVC x265 ESub ~TheAvi [ProtonMovies]