PXT24

PXT24

Akelli.2023.Hindi.2160p.JIO.WEB-DL.DD5.1.H.264-TheBiscuitMan
  • Category
    : Movies
  • Type
    : HD
  • Language
    : Hindi
  • Total size
    : 13.30 GB
  • Date uploaded
    : 05 May ,2024

============================================================== Help Us Keep The Content Coming!
Your Donations Are Crucial For Our Continued Uploads.
Support Us Now To Ensure We Can Keep Delivering Quality Content.
============================================================== a ============================================================== Png-Item-2144731 ==============================================================
Akelli.2023.Hindi.2160p.JIO.WEB-DL.DD5.1.H.264-TheBiscuitMan
==============================================================
IMDB | TMDB | MOVIE TRAILER
==============================================================
Video: AVC | 3840x2160 25fps | 15.2 Mb/s
Audio: Hindi | AC-3 | Dolby Digital | 384 kb/s | DD5.1 | 6 channels
Subtitle: English
Size: 13.3 GiB | Duration: 2h 2min
==============================================================
Posted by: xCLuMsYx | Date: 05/05/2024
==============================================================
Ticker-DOT
1
More Poster's

Code: General
Unique ID : 79024778237525700591500401165181402450 (0x3B739E618687AE03E5215E7E02303D52)
Complete name : Akelli.2023.Hindi.2160p.JIO.WEB-DL.DD5.1.H.264-TheBiscuitMan.mkv
Format : Matroska
Format version : Version 4
File size : 13.3 GiB
Duration : 2 h 2 min
Overall bit rate mode : Variable
Overall bit rate : 15.6 Mb/s
Frame rate : 25.000 FPS
Writing application : mkvmerge v84.0 ('Sleeper') 64-bit
Writing library : libebml v1.4.5 + libmatroska v1.7.1

Video
ID : 1
Format : AVC
Format/Info : Advanced Video Codec
Format profile : [email protected]
Format settings : CABAC / 4 Ref Frames
Format settings, CABAC : Yes
Format settings, Reference frames : 4 frames
Format settings, GOP : M=8, N=50
Codec ID : V_MPEG4/ISO/AVC
Duration : 2 h 2 min
Bit rate mode : Variable
Bit rate : 15.2 Mb/s
Maximum bit rate : 19.5 Mb/s
Width : 3 840 pixels
Height : 2 160 pixels
Display aspect ratio : 1.896
Frame rate mode : Constant
Frame rate : 25.000 FPS
Color space : YUV
Chroma subsampling : 4:2:0
Bit depth : 8 bits
Scan type : Progressive
Bits/(Pixel*Frame) : 0.073
Time code of first frame : 10:00:00:00
Stream size : 13.0 GiB (98%)
Default : Yes
Forced : No
Color range : Limited
Color primaries : BT.709
Transfer characteristics : BT.2020 (10-bit)
Matrix coefficients : BT.2020 non-constant

Audio
ID : 2
Format : AC-3
Format/Info : Audio Coding 3
Commercial name : Dolby Digital
Codec ID : A_AC3
Duration : 2 h 2 min
Bit rate mode : Constant
Bit rate : 384 kb/s
Channel(s) : 6 channels
Channel layout : L R C LFE Ls Rs
Sampling rate : 48.0 kHz
Frame rate : 31.250 FPS (1536 SPF)
Compression mode : Lossy
Stream size : 336 MiB (2%)
Language : Hindi
Service kind : Complete Main
Default : Yes
Forced : No
Dialog Normalization : -27 dB
compr : -0.28 dB
cmixlev : -3.0 dB
surmixlev : -3 dB
mixlevel : 285 dB
roomtyp : 3
ltrtcmixlev : -3.0 dB
ltrtsurmixlev : -3.0 dB
lorocmixlev : -3.0 dB
lorosurmixlev : -3.0 dB
dialnorm_Average : -27 dB
dialnorm_Minimum : -27 dB
dialnorm_Maximum : -27 dB

Text
ID : 3
Format : UTF-8
Codec ID : S_TEXT/UTF8
Codec ID/Info : UTF-8 Plain Text
Duration : 1 h 59 min
Bit rate : 34 b/s
Frame rate : 0.165 FPS
Count of elements : 1185
Stream size : 30.0 KiB (0%)
Language : English
Default : Yes
Forced : No

Menu
00:00:09.000 : en:Chapter 01
00:02:13.000 : en:Chapter 02
01:57:39.000 : en:Credits
02:02:13.000 : en:Chapter 04

68353fc335c02ecda7bf7de4bfaf31a4
e8c30b5d27a085203bdde915df7c486a
7cff894b1296ce19d90fa6bb0cb7df2a
8265bddc2f08dee631a199bb8a3d6882
426f234cf6ad030f1d3933d7fd5d2f64
86387bd8c7a8bdac6a92da04f726b398
35912918a97f5659386fab4e721568c8
42285444e659c1d4177d9caf5b68ce81
d561c3e2d3d7cd42637724e21a303883
3e0c687fc23f1abcdc748b7a163ebd3d