PXT24

PXT24

American Gospel: Christ Crucified (2019) [720p] [WEBRip]
  • Category
    : Documentaries
  • Type
    : Documentary
  • Language
    : English
  • Total size
    : 1.60 GB
  • Date uploaded
    : 15 Jan ,2024

American-Gospel-Christ-Crucified
__________________________________________________________________________________________________________
American Gospel: Christ Crucified

IMDb: https://www.imdb.com/title/tt11465650/

jopa-torrents
__________________________________________________________________________________________________________
Storyline
AMERICAN GOSPEL: CHRIST CRUCIFIED (2019)
The gospel message of "Christ crucified" has always been offensive. In our culture it is common for preachers to soften the offense of the cross, and the attributes of God that are displayed in the person and work of Jesus Christ. "American Gospel: Christ Crucified" explores how the paths of post-modernism and progressive Christianity lead to a different gospel, and a god created in our own image.
This feature-length film is the second in a series.
TRAILER: https://www.youtube.com/watch?v=nDW19ItmZXQ&ab_channel=AmericanGospel
__________________________________________________________________________________________________________

WHAT IS AMERICAN GOSPEL? http://www.americangospelfilm.com/
We believe American culture's influence on the gospel is a problem, so an "American Gospel" is a distorted, corrupted gospel. That distortion happens when you add to the gospel (promises of "the American dream" of health, wealth, & prosperity), or when you subtract from the gospel (due to the influence of postmodernism, relativism, religious pluralism, etc.). There are currently two AG films in the series with a third in production. We also have a streaming service called AGTV (watchagtv.com) where you can find the AG films along with supporting content, recommended ministries, and other films and series.
_______________________________________________________________________________________
General
Complete name : American.Gospel.Christ.Crucified.2019.1080p.H264-HODL.mp4
Format : MPEG-4
Format profile : Base Media / Version 2
Codec ID : mp42 (mp42/mp41/isom/avc1)
File size : 4.20 GiB
Duration : 2 h 56 min
Overall bit rate mode : Variable
Overall bit rate : 3 408 kb/s
Encoded date : UTC 2020-04-12 18:32:37
Tagged date : UTC 2020-04-12 18:32:37

Video
ID : 1
Format : AVC
Format/Info : Advanced Video Codec
Format profile : High@L4
Format settings : CABAC / 5 Ref Frames
Format settings, CABAC : Yes
Format settings, Reference : 5 frames
Codec ID : avc1
Codec ID/Info : Advanced Video Coding
Duration : 2 h 56 min
Bit rate : 3 150 kb/s
Width : 1 920 pixels
Height : 1 080 pixels
Display aspect ratio : 16:9
Frame rate mode : Constant
Frame rate : 23.976 (24000/1001) FPS
Color space : YUV
Chroma subsampling : 4:2:0
Bit depth : 8 bits
Scan type : Progressive
Bits/(Pixel*Frame) : 0.063
Stream size : 3.89 GiB (92%)
Writing library : x264 core 159 r10 1771b55
Encoding settings : cabac=1 / ref=5 / deblock=1:0:0 / analyse=0x3:0x113 / me=hex / subme=8 / psy=1 / psy_rd=1.00:0.00 / mixed_ref=1 / me_range=16 / chroma_me=1 / trellis=2 / 8x8dct=1 / cqm=0 / deadzone=21,11 / fast_pskip=1 / chroma_qp_offset=-2 / threads=34 / lookahead_threads=5 / sliced_threads=0 / nr=0 / decimate=1 / interlaced=0 / bluray_compat=0 / stitchable=1 / constrained_intra=0 / bframes=3 / b_pyramid=2 / b_adapt=2 / b_bias=0 / direct=3 / weightb=1 / open_gop=0 / weightp=2 / keyint=infinite / keyint_min=23 / scenecut=40 / intra_refresh=0 / rc_lookahead=50 / rc=crf / mbtree=1 / crf=20.0 / qcomp=0.60 / qpmin=5 / qpmax=69 / qpstep=4 / vbv_maxrate=5500 / vbv_bufsize=15000 / crf_max=0.0 / nal_hrd=none / filler=0 / ip_ratio=1.40 / aq=1:1.00
Encoded date : UTC 2020-04-12 18:32:37
Tagged date : UTC 2020-04-12 18:32:37
Color range : Limited
Color primaries : BT.709
Transfer characteristics : BT.709
Matrix coefficients : BT.709
Codec configuration box : avcC

Audio
ID : 2
Format : AAC LC
Format/Info : Advanced Audio Codec Low Complexity
Codec ID : mp4a-40-2
Duration : 2 h 56 min
Bit rate mode : Variable
Bit rate : 253 kb/s
Channel(s) : 2 channels
Channel layout : L R
Sampling rate : 48.0 kHz
Frame rate : 46.875 FPS (1024 SPF)
Compression mode : Lossy
Stream size : 320 MiB (7%)
Encoded date : UTC 2020-04-12 18:32:37
Tagged date : UTC 2020-04-12 18:32:37

American Gospel Christ Crucified (2019) [720p] [WEBRip]