PXT24

PXT24

ARK.The.Animated.Series.S01.720p.WEBRip.x265-PROTON
  • Category
    : TV
  • Type
    : HEVC/x265
  • Language
    : English
  • Total size
    : 2.00 GB
  • Date uploaded
    : 02 Apr ,2024

INFO

General
Complete name : ARK.The.Animated.Series.S01E01.720p.WEBRip.x265-PROTON.mp4
Format : MPEG-4
Format profile : Base Media
Codec ID : isom (isom/iso2/mp41)
File size : 486 MiB
Duration : 47 min 39 s
Overall bit rate : 1 427 kb/s
Writing application : Hybrik 1.247.21

Video
ID : 1
Format : HEVC
Format/Info : High Efficiency Video Coding
Format profile : [email protected]@Main
Codec ID : hvc1
Codec ID/Info : High Efficiency Video Coding
Duration : 47 min 39 s
Bit rate : 1 198 kb/s
Width : 1 280 pixels
Height : 720 pixels
Display aspect ratio : 16:9
Frame rate mode : Constant
Frame rate : 23.976 (24000/1001) FPS
Color space : YUV
Chroma subsampling : 4:2:0
Bit depth : 8 bits
Scan type : Progressive
Bits/(Pixel*Frame) : 0.054
Stream size : 408 MiB (84%)
Language : English
Color range : Limited
Color primaries : BT.709
Transfer characteristics : BT.709
Matrix coefficients : BT.709
Codec configuration box : hvcC

Audio
ID : 2
Format : AAC LC
Format/Info : Advanced Audio Codec Low Complexity
Codec ID : mp4a-40-2
Duration : 47 min 39 s
Source duration : 47 min 39 s
Source_Duration_LastFrame : -6 ms
Bit rate mode : Constant
Bit rate : 224 kb/s
Channel(s) : 6 channels
Channel layout : C L R Ls Rs LFE
Sampling rate : 48.0 kHz
Frame rate : 46.875 FPS (1024 SPF)
Compression mode : Lossy
Stream size : 76.3 MiB (16%)
Source stream size : 76.3 MiB (16%)
Language : English
Default : Yes
Alternate group : 1

SCREENSHOTS

ARK-The-Animated-Series-S01-E01-720p-WEBRip-x265-PROTON-004
ARK-The-Animated-Series-S01-E01-720p-WEBRip-x265-PROTON-005
ARK-The-Animated-Series-S01-E01-720p-WEBRip-x265-PROTON-006

===============================================================

PLEASE SEED FOR 48-72H!

===============================================================

ARK.The.Animated.Series.S01.720p.WEBRip.x265-PROTON

Subs

ARK.The.Animated.Series.S01E01.720p.WEBRip.x265-PROTON

ARK.The.Animated.Series.S01E02.720p.WEBRip.x265-PROTON

ARK.The.Animated.Series.S01E03.720p.WEBRip.x265-PROTON

ARK.The.Animated.Series.S01E04.720p.WEBRip.x265-PROTON

ARK.The.Animated.Series.S01E05.720p.WEBRip.x265-PROTON

ARK.The.Animated.Series.S01E06.720p.WEBRip.x265-PROTON