PXT24

PXT24

Atlantis: The Lost Empire - Atlantis - L'impero perduto (2001) 720p H264 Ac3 5.1 Ita Eng Sub Ita Eng-MIRCrew
  • Category
    : Movies
  • Type
    : HD
  • Language
    : English
  • Total size
    : 1.90 GB
  • Date uploaded
    : 10 Jul ,2024

Atlantis: The Lost Empire - Atlantis - L'impero perduto (2001) 720p H264 Ac3 5.1 Ita Eng Sub Ita Eng-MIRCrew


banner-MIRCrew-aprile-22-trasp


NO FOUND ONLY ORIGINAL RELEASE

My release is always in double track audio italian and Original audio
for select it use VLC or dvd player home
not use wmp

Atlantis - L'impero perduto - The lost Empire (2001)


Quality MIRCrew in HD 720p da 1,88 gb

1WtayGc

youtube_logo imdb_new



fGu1rKv

Titolo originale Atlantis: The Lost Empire
Lingua originale inglese
Paese di produzione Stati Uniti d'America
Anno 2001
Durata 95 minuti
Rapporto 2,35:1
Genere animazione, azione, fantascienza, avventura
Regia Gary Trousdale, Kirk Wise
Soggetto Leggenda greca, Jules Verne (romanzo), Kirk Wise, Gary Trousdale, Joss Whedon, Bryce Zabel, Jackie Zabel, Tab Murphy
Sceneggiatura Tab Murphy

W7kBqiE

Michael J. Fox: Milo James Thatch
James Garner: Comandante Lyle Tiberius Rourke
Cree Summer: Kida
Don Novello: Vincenzo "Vinny" Santorini
Phil Morris: Dottor Joshua Strongbear Dolce
Corey Burton: Gaetan "Mole" Molière
Claudia Christian: Tenente Helga Sinclair
Jacqueline Obradors: Audrey Rocio Ramirez
Florence Stanley: Signora Wilhelmina Bertha Packard
David Ogden Stiers: Signor Fenton Quincy Harcourt
John Mahoney: Preston B. Whitmore
Jim Varney: Jebidiah Allerdyce "Cookie" Farnsworth
Leonard Nimoy: Re Kashekim Nedakh



bFK3ggF

In un tempo remoto, un'esplosione e un enorme tsunami si scatenano nell'oceano Atlantico. La gigantesca onda si dirige verso Atlantide, città molto avanzata, dove già era nota e applicata la moderna corrente elettrica. Alcuni automi in pietra proteggono il centro della città mediante un campo di forza, alimentato da un misterioso artefatto posto sopra la città, il quale chiama a sé la regina. La donna lascia indietro la figlia piccola Kida e suo marito, fondendosi con l'oggetto.

48xHWWH

1914: Milo Thatch, grandson of the great Thaddeus Thatch works in the boiler room of a museum. He knows that Atlantis was real, and he can get there if he has the mysterious Shephards journal, which can guide him to Atlantis.

PIR3QEl8XAwHCnvhDgsFfkLsbA7b

aVrMohH

[spoiler]

General

Complete name : Atlantis - L'impero perduto (2001) 720p H264 Ac3 5.1 Ita Eng Sub Ita Eng-MIRCrew.mkv
Format : Matroska
Format version : Version 2
File size : 1.88 GiB
Duration : 1h 35mn
Overall bit rate : 2 813 Kbps
Movie name : MIRCrew
Encoded date : UTC 2024-07-10T12:40:52Z
Writing application : mkvmerge v5.8.0 ('No Sleep / Pillow') built on Sep 2 2012 15:37:04
Writing library : Lavf55.12.0

Video
ID : 1
Format : AVC
Format/Info : Advanced Video Codec
Format profile : [email protected]
Format settings, CABAC : Yes
Format settings, ReFrames : 4 frames
Codec ID : V_MPEG4/ISO/AVC
Duration : 1h 35mn
Bit rate : 1 900 Kbps
Width : 1 280 pixels
Height : 544 pixels
Display aspect ratio : 2.35:1
Frame rate : 23.976 fps
Color space : YUV
Chroma subsampling : 4:2:0
Bit depth : 8 bits
Scan type : Progressive
Bits/(Pixel*Frame) : 0.114
Stream size : 1.29 GiB (68%)
Title : MIRCrew
Writing library : x264 core 142 r2479 dd79a61
Encoding settings : cabac=1 / ref=1 / deblock=1:0:0 / analyse=0x1:0x111 / me=hex / subme=2 / psy=1 / psy_rd=1.00:0.00 / mixed_ref=0 / me_range=16 / chroma_me=1 / trellis=0 / 8x8dct=0 / cqm=0 / deadzone=21,11 / fast_pskip=1 / chroma_qp_offset=0 / threads=9 / lookahead_threads=3 / sliced_threads=0 / nr=0 / decimate=1 / interlaced=0 / bluray_compat=0 / constrained_intra=0 / bframes=3 / b_pyramid=2 / b_adapt=1 / b_bias=0 / direct=1 / weightb=1 / open_gop=0 / weightp=1 / keyint=240 / keyint_min=24 / scenecut=40 / intra_refresh=0 / rc_lookahead=10 / rc=abr / mbtree=1 / bitrate=1900 / ratetol=1.0 / qcomp=0.60 / qpmin=0 / qpmax=69 / qpstep=4 / vbv_maxrate=50000 / vbv_bufsize=62500 / nal_hrd=none / filler=0 / ip_ratio=1.40 / aq=1:1.00
Language : Italian
Default : Yes
Forced : No
Color primaries : BT.709-5, BT.1361, IEC 61966-2-4, SMPTE RP177
Transfer characteristics : BT.709-5, BT.1361
Matrix coefficients : BT.709-5, BT.1361, IEC 61966-2-4 709, SMPTE RP177

Audio #1
ID : 2
Format : AC-3
Format/Info : Audio Coding 3
Mode extension : CM (complete main)
Codec ID : A_AC3
Duration : 1h 35mn
Bit rate mode : Constant
Bit rate : 448 Kbps
Channel(s) : 6 channels
Channel positions : Front: L C R, Side: L R, LFE
Sampling rate : 48.0 KHz
Bit depth : 16 bits
Compression mode : Lossy
Delay relative to video : -5ms
Stream size : 307 MiB (16%)
Title : Ita Ac3 5.1
Language : Italian
Default : Yes
Forced : No

Audio #2
ID : 3
Format : AC-3
Format/Info : Audio Coding 3
Mode extension : CM (complete main)
Codec ID : A_AC3
Duration : 1h 35mn
Bit rate mode : Constant
Bit rate : 384 Kbps
Channel(s) : 6 channels
Channel positions : Front: L C R, Side: L R, LFE
Sampling rate : 48.0 KHz
Bit depth : 16 bits
Compression mode : Lossy
Delay relative to video : -5ms
Stream size : 263 MiB (14%)
Title : Eng Ac3 5.1
Language : English
Default : No
Forced : No

Text #1
ID : 4
Format : ASS
Codec ID : S_TEXT/ASS
Codec ID/Info : Advanced Sub Station Alpha
Compression mode : Lossless
Title : Forced ita
Language : Italian
Default : Yes
Forced : Yes

Text #2
ID : 5
Format : ASS
Codec ID : S_TEXT/ASS
Codec ID/Info : Advanced Sub Station Alpha
Compression mode : Lossless
Title : Ita
Language : Italian
Default : No
Forced : No

Text #3
ID : 6
Format : ASS
Codec ID : S_TEXT/ASS
Codec ID/Info : Advanced Sub Station Alpha
Compression mode : Lossless
Title : Eng
Language : English
Default : No
Forced : No

Menu
00:00:00.000 : :Chapter 1
00:02:30.942 : :Chapter 2
00:07:55.224 : :Chapter 3
00:13:42.655 : :Chapter 4
00:18:47.251 : :Chapter 5
00:26:25.250 : :Chapter 6
00:31:32.932 : :Chapter 7
00:36:16.841 : :Chapter 8
00:40:53.409 : :Chapter 9
00:46:56.355 : :Chapter 10
00:53:53.480 : :Chapter 11
00:59:41.244 : :Chapter 12
01:06:22.353 : :Chapter 13
01:09:40.301 : :Chapter 14
01:13:09.468 : :Chapter 15
01:19:43.904 : :Chapter 16
01:25:10.897 : :Chapter 17
01:28:02.694 : :Chapter 18
01:29:27.153 : :Chapter 19






[/spoiler]

lvhU6

cWb6Z

nU43TBc