PXT24

PXT24

Batman Begins [2005] 1080p BDRip x265 DTS-HD MA 5.1 Kira [SEV]
  • Category
    : Movies
  • Type
    : HEVC/x265
  • Language
    : English
  • Total size
    : 18.80 GB
  • Date uploaded
    : 05 Jun ,2024

SEV-logo

Source vs Encode :- Link

Screenshot's
aC3HpnoP_t gkMeI1Tx_t rPxZ8vvs_t gPRe9Yhu_t pQeEx1sy_t NBpIhkQt_t omHNlMZ7_t PWgH9O3I_t xxxeR5bn_t


Media Information
Code: General
Unique ID : 194908128117640193853530578689432336381 (0x92A1F0A61BE99CC9C90919EBE3D5B7FD)
Complete name : Batman Begins [2005] 1080p BDRip x265 DTS-HD MA 5.1 Kira [SEV].mkv
Format : Matroska
Format version : Version 4
File size : 18.8 GiB
Duration : 2 h 20 min
Overall bit rate mode : Variable
Overall bit rate : 19.2 Mb/s
Frame rate : 23.976 FPS
Movie name : | Batman Begins [2005] | 1080p | BDRip | x265 | DTS:HD MA 5.1 @ 4382 Kbps | Kira [SEV] |
Encoded date : 2024-05-24 11:54:28 UTC
Writing application : mkvmerge v84.0 ('Sleeper') 64-bit
Writing library : libebml v1.4.5 + libmatroska v1.7.1

Video
ID : 1
Format : HEVC
Format/Info : High Efficiency Video Coding
Format profile : Main 10@L4@Main
Codec ID : V_MPEGH/ISO/HEVC
Duration : 2 h 20 min
Bit rate : 14.0 Mb/s
Width : 1 920 pixels
Height : 1 080 pixels
Display aspect ratio : 16:9
Frame rate mode : Constant
Frame rate : 23.976 (24000/1001) FPS
Color space : YUV
Chroma subsampling : 4:2:0
Bit depth : 10 bits
Bits/(Pixel*Frame) : 0.281
Stream size : 13.7 GiB (73%)
Title : | Batman Begins [2005] | 1080p | BDRip | x265 | DTS:HD MA 5.1 @ 4382 Kbps | Kira [SEV] |
Writing library : x265 3.6+2+13-9a3dac6e5:[Windows][MSVC 1937][64 bit] 10bit
Encoding settings : cpuid=1111039 / frame-threads=5 / numa-pools=32 / wpp / no-pmode / no-pme / no-psnr / no-ssim / log-level=2 / input-csp=1 / input-res=1920x1080 / interlace=0 / total-frames=100734 / level-idc=0 / high-tier=1 / uhd-bd=0 / ref=5 / no-allow-non-conformance / no-repeat-headers / annexb / no-aud / no-eob / no-eos / no-hrd / info / hash=0 / temporal-layers=0 / open-gop / min-keyint=23 / keyint=250 / gop-lookahead=0 / bframes=16 / b-adapt=2 / b-pyramid / bframe-bias=0 / rc-lookahead=100 / lookahead-slices=0 / scenecut=40 / no-hist-scenecut / radl=0 / no-splice / no-intra-refresh / ctu=64 / min-cu-size=8 / no-rect / no-amp / max-tu-size=32 / tu-inter-depth=4 / tu-intra-depth=4 / limit-tu=4 / rdoq-level=2 / dynamic-rd=0.00 / no-ssim-rd / signhide / no-tskip / nr-intra=0 / nr-inter=0 / no-constrained-intra / no-strong-intra-smoothing / max-merge=5 / limit-refs=0 / limit-modes / me=3 / subme=7 / merange=92 / temporal-mvp / no-frame-dup / no-hme / weightp / weightb / no-analyze-src-pics / deblock=-1:-1 / no-sao / no-sao-non-deblock / rd=4 / selective-sao=0 / no-early-skip / rskip / no-fast-intra / no-tskip-fast / no-cu-lossless / b-intra / no-splitrd-skip / rdpenalty=0 / psy-rd=1.50 / psy-rdoq=1.00 / no-rd-refine / no-lossless / cbqpoffs=0 / crqpoffs=0 / rc=crf / crf=14.5 / qcomp=0.60 / qpstep=4 / stats-write=0 / stats-read=0 / ipratio=1.40 / pbratio=1.30 / aq-mode=3 / aq-strength=1.00 / aq-bias-strength=1.00 / cutree / zone-count=0 / no-strict-cbr / qg-size=32 / no-rc-grain / qpmax=69 / qpmin=0 / no-const-vbv / sar=0 / overscan=0 / videoformat=5 / range=0 / colorprim=2 / transfer=2 / colormatrix=2 / chromaloc=0 / display-window=0 / cll=0,0 / min-luma=0 / max-luma=1023 / log2-max-poc-lsb=8 / vui-timing-info / vui-hrd-info / slices=1 / no-opt-qp-pps / no-opt-ref-list-length-pps / no-multi-pass-opt-rps / scenecut-bias=0.05 / no-opt-cu-delta-qp / no-aq-motion / no-hdr10 / no-hdr10-opt / no-dhdr10-opt / no-idr-recovery-sei / analysis-reuse-level=0 / analysis-save-reuse-level=0 / analysis-load-reuse-level=0 / scale-factor=0 / refine-intra=0 / refine-inter=0 / refine-mv=1 / refine-ctu-distortion=0 / no-limit-sao / ctu-info=0 / no-lowpass-dct / refine-analysis-type=0 / copy-pic=1 / max-ausize-factor=1.0 / no-dynamic-refine / no-single-sei / no-hevc-aq / no-svt / no-field / qp-adaptation-range=1.00 / scenecut-aware-qp=0 / conformance-window-offsets / right=0 / bottom=0 / decoder-max-rate=0 / no-vbv-live-multi-pass / no-mcstf / no-sbrc
Language : English
Default : Yes
Forced : No

Audio #1
ID : 2
Format : DTS XLL
Format/Info : Digital Theater Systems
Commercial name : DTS-HD Master Audio
Codec ID : A_DTS
Duration : 2 h 20 min
Bit rate mode : Variable
Bit rate : 4 382 kb/s
Channel(s) : 6 channels
Channel layout : C L R Ls Rs LFE
Sampling rate : 48.0 kHz
Frame rate : 93.750 FPS (512 SPF)
Bit depth : 24 bits
Compression mode : Lossless
Stream size : 4.29 GiB (23%)
Title : English BD DTS:HD MA 5.1 @ 4382 Kbps
Language : English
Default : Yes
Forced : No

Audio #2
ID : 3
Format : E-AC-3
Format/Info : Enhanced AC-3
Commercial name : Dolby Digital Plus
Codec ID : A_EAC3
Duration : 2 h 20 min
Bit rate mode : Constant
Bit rate : 192 kb/s
Channel(s) : 2 channels
Channel layout : L R
Sampling rate : 48.0 kHz
Frame rate : 31.250 FPS (1536 SPF)
Compression mode : Lossy
Stream size : 192 MiB (1%)
Title : Trivia
Language : English
Service kind : Complete Main
Default : No
Forced : No

Text #1
ID : 4
Format : PGS
Muxing mode : zlib
Codec ID : S_HDMV/PGS
Codec ID/Info : Picture based subtitle format used on BDs/HD-DVDs
Duration : 2 h 19 min
Bit rate : 30.3 kb/s
Frame rate : 0.353 FPS
Count of elements : 2946
Stream size : 30.2 MiB (0%)
Title : English SDH BD PGS Sub
Language : English
Default : Yes
Forced : No

Text #2
ID : 5
Format : PGS
Muxing mode : zlib
Codec ID : S_HDMV/PGS
Codec ID/Info : Picture based subtitle format used on BDs/HD-DVDs
Duration : 2 h 19 min
Bit rate : 14.3 kb/s
Frame rate : 0.335 FPS
Count of elements : 2796
Stream size : 14.2 MiB (0%)
Language : Arabic
Default : No
Forced : No

Text #3
ID : 6
Format : PGS
Muxing mode : zlib
Codec ID : S_HDMV/PGS
Codec ID/Info : Picture based subtitle format used on BDs/HD-DVDs
Duration : 2 h 19 min
Bit rate : 22.0 kb/s
Frame rate : 0.261 FPS
Count of elements : 2176
Stream size : 22.0 MiB (0%)
Language : Bulgarian
Default : No
Forced : No

Text #4
ID : 7
Format : PGS
Muxing mode : zlib
Codec ID : S_HDMV/PGS
Codec ID/Info : Picture based subtitle format used on BDs/HD-DVDs
Duration : 2 h 19 min
Bit rate : 22.7 kb/s
Frame rate : 0.339 FPS
Count of elements : 2832
Stream size : 22.6 MiB (0%)
Language : Chinese
Default : No
Forced : No

Text #5
ID : 8
Format : PGS
Muxing mode : zlib
Codec ID : S_HDMV/PGS
Codec ID/Info : Picture based subtitle format used on BDs/HD-DVDs
Duration : 2 h 19 min
Bit rate : 19.8 kb/s
Frame rate : 0.331 FPS
Count of elements : 2766
Stream size : 19.7 MiB (0%)
Language : Croatian
Default : No
Forced : No

Text #6
ID : 9
Format : PGS
Muxing mode : zlib
Codec ID : S_HDMV/PGS
Codec ID/Info : Picture based subtitle format used on BDs/HD-DVDs
Duration : 2 h 19 min
Bit rate : 24.4 kb/s
Frame rate : 0.329 FPS
Count of elements : 2750
Stream size : 24.2 MiB (0%)
Language : Czech
Default : No
Forced : No

Text #7
ID : 10
Format : PGS
Muxing mode : zlib
Codec ID : S_HDMV/PGS
Codec ID/Info : Picture based subtitle format used on BDs/HD-DVDs
Duration : 2 h 19 min
Bit rate : 21.9 kb/s
Frame rate : 0.245 FPS
Count of elements : 2044
Stream size : 21.8 MiB (0%)
Language : Danish
Default : No
Forced : No

Text #8
ID : 11
Format : PGS
Muxing mode : zlib
Codec ID : S_HDMV/PGS
Codec ID/Info : Picture based subtitle format used on BDs/HD-DVDs
Duration : 2 h 19 min
Bit rate : 22.7 kb/s
Frame rate : 0.287 FPS
Count of elements : 2394
Stream size : 22.6 MiB (0%)
Language : Dutch
Default : No
Forced : No

Text #9
ID : 12
Format : PGS
Muxing mode : zlib
Codec ID : S_HDMV/PGS
Codec ID/Info : Picture based subtitle format used on BDs/HD-DVDs
Duration : 2 h 19 min
Bit rate : 23.4 kb/s
Frame rate : 0.328 FPS
Count of elements : 2736
Stream size : 23.3 MiB (0%)
Language : Estonian
Default : No
Forced : No

Text #10
ID : 13
Format : PGS
Muxing mode : zlib
Codec ID : S_HDMV/PGS
Codec ID/Info : Picture based subtitle format used on BDs/HD-DVDs
Duration : 2 h 19 min
Bit rate : 23.9 kb/s
Frame rate : 0.268 FPS
Count of elements : 2238
Stream size : 23.8 MiB (0%)
Language : Finnish
Default : No
Forced : No

Text #11
ID : 14
Format : PGS
Muxing mode : zlib
Codec ID : S_HDMV/PGS
Codec ID/Info : Picture based subtitle format used on BDs/HD-DVDs
Duration : 2 h 19 min
Bit rate : 22.8 kb/s
Frame rate : 0.333 FPS
Count of elements : 2784
Stream size : 22.7 MiB (0%)
Language : French
Default : No
Forced : No

Text #12
ID : 15
Format : PGS
Muxing mode : zlib
Codec ID : S_HDMV/PGS
Codec ID/Info : Picture based subtitle format used on BDs/HD-DVDs
Duration : 2 h 19 min
Bit rate : 30.7 kb/s
Frame rate : 0.342 FPS
Count of elements : 2858
Stream size : 30.5 MiB (0%)
Language : German
Default : No
Forced : No

Text #13
ID : 16
Format : PGS
Muxing mode : zlib
Codec ID : S_HDMV/PGS
Codec ID/Info : Picture based subtitle format used on BDs/HD-DVDs
Duration : 2 h 19 min
Bit rate : 32.4 kb/s
Frame rate : 0.359 FPS
Count of elements : 3002
Stream size : 32.2 MiB (0%)
Title : SDH
Language : German
Default : No
Forced : No

Text #14
ID : 17
Format : PGS
Muxing mode : zlib
Codec ID : S_HDMV/PGS
Codec ID/Info : Picture based subtitle format used on BDs/HD-DVDs
Duration : 2 h 19 min
Bit rate : 22.7 kb/s
Frame rate : 0.327 FPS
Count of elements : 2728
Stream size : 22.6 MiB (0%)
Language : Greek
Default : No
Forced : No

Text #15
ID : 18
Format : PGS
Muxing mode : zlib
Codec ID : S_HDMV/PGS
Codec ID/Info : Picture based subtitle format used on BDs/HD-DVDs
Duration : 2 h 19 min
Bit rate : 20.0 kb/s
Frame rate : 0.335 FPS
Count of elements : 2802
Stream size : 19.9 MiB (0%)
Language : Hebrew
Default : No
Forced : No

Text #16
ID : 19
Format : PGS
Muxing mode : zlib
Codec ID : S_HDMV/PGS
Codec ID/Info : Picture based subtitle format used on BDs/HD-DVDs
Duration : 2 h 19 min
Bit rate : 21.0 kb/s
Frame rate : 0.333 FPS
Count of elements : 2784
Stream size : 20.9 MiB (0%)
Language : Hungarian
Default : No
Forced : No

Text #17
ID : 20
Format : PGS
Muxing mode : zlib
Codec ID : S_HDMV/PGS
Codec ID/Info : Picture based subtitle format used on BDs/HD-DVDs
Duration : 2 h 19 min
Bit rate : 25.0 kb/s
Frame rate : 0.333 FPS
Count of elements : 2780
Stream size : 24.9 MiB (0%)
Language : Icelandic
Default : No
Forced : No

Text #18
ID : 21
Format : PGS
Muxing mode : zlib
Codec ID : S_HDMV/PGS
Codec ID/Info : Picture based subtitle format used on BDs/HD-DVDs
Duration : 2 h 19 min
Bit rate : 26.2 kb/s
Frame rate : 0.332 FPS
Count of elements : 2776
Stream size : 26.1 MiB (0%)
Language : Indonesian
Default : No
Forced : No

Text #19
ID : 22
Format : PGS
Muxing mode : zlib
Codec ID : S_HDMV/PGS
Codec ID/Info : Picture based subtitle format used on BDs/HD-DVDs
Duration : 2 h 19 min
Bit rate : 23.9 kb/s
Frame rate : 0.332 FPS
Count of elements : 2770
Stream size : 23.8 MiB (0%)
Language : Italian
Default : No
Forced : No

Text #20
ID : 23
Format : PGS
Muxing mode : zlib
Codec ID : S_HDMV/PGS
Codec ID/Info : Picture based subtitle format used on BDs/HD-DVDs
Duration : 2 h 19 min
Bit rate : 25.8 kb/s
Frame rate : 0.353 FPS
Count of elements : 2946
Stream size : 25.7 MiB (0%)
Title : SDH
Language : Italian
Default : No
Forced : No

Text #21
ID : 24
Format : PGS
Muxing mode : zlib
Codec ID : S_HDMV/PGS
Codec ID/Info : Picture based subtitle format used on BDs/HD-DVDs
Duration : 2 h 9 min
Bit rate : 21.6 kb/s
Frame rate : 0.384 FPS
Count of elements : 2993
Stream size : 20.1 MiB (0%)
Language : Japanese
Default : No
Forced : No

Text #22
ID : 25
Format : PGS
Muxing mode : zlib
Codec ID : S_HDMV/PGS
Codec ID/Info : Picture based subtitle format used on BDs/HD-DVDs
Duration : 2 h 19 min
Bit rate : 22.2 kb/s
Frame rate : 0.331 FPS
Count of elements : 2768
Stream size : 22.1 MiB (0%)
Language : Latvian
Default : No
Forced : No

Text #23
ID : 26
Format : PGS
Muxing mode : zlib
Codec ID : S_HDMV/PGS
Codec ID/Info : Picture based subtitle format used on BDs/HD-DVDs
Duration : 2 h 19 min
Bit rate : 14.7 kb/s
Frame rate : 0.329 FPS
Count of elements : 2748
Stream size : 14.6 MiB (0%)
Language : Korean
Default : No
Forced : No

Text #24
ID : 27
Format : PGS
Muxing mode : zlib
Codec ID : S_HDMV/PGS
Codec ID/Info : Picture based subtitle format used on BDs/HD-DVDs
Duration : 2 h 19 min
Bit rate : 27.3 kb/s
Frame rate : 0.334 FPS
Count of elements : 2788
Stream size : 27.1 MiB (0%)
Language : Lithuanian
Default : No
Forced : No

Text #25
ID : 28
Format : PGS
Muxing mode : zlib
Codec ID : S_HDMV/PGS
Codec ID/Info : Picture based subtitle format used on BDs/HD-DVDs
Duration : 2 h 19 min
Bit rate : 26.0 kb/s
Frame rate : 0.324 FPS
Count of elements : 2706
Stream size : 25.9 MiB (0%)
Language : Norwegian
Default : No
Forced : No

Text #26
ID : 29
Format : PGS
Muxing mode : zlib
Codec ID : S_HDMV/PGS
Codec ID/Info : Picture based subtitle format used on BDs/HD-DVDs
Duration : 2 h 19 min
Bit rate : 24.4 kb/s
Frame rate : 0.323 FPS
Count of elements : 2696
Stream size : 24.3 MiB (0%)
Language : Polish
Default : No
Forced : No

Text #27
ID : 30
Format : PGS
Muxing mode : zlib
Codec ID : S_HDMV/PGS
Codec ID/Info : Picture based subtitle format used on BDs/HD-DVDs
Duration : 2 h 19 min
Bit rate : 25.3 kb/s
Frame rate : 0.330 FPS
Count of elements : 2754
Stream size : 25.1 MiB (0%)
Title : Brazilian
Language : Portuguese
Default : No
Forced : No

Text #28
ID : 31
Format : PGS
Muxing mode : zlib
Codec ID : S_HDMV/PGS
Codec ID/Info : Picture based subtitle format used on BDs/HD-DVDs
Duration : 2 h 19 min
Bit rate : 27.2 kb/s
Frame rate : 0.341 FPS
Count of elements : 2848
Stream size : 27.1 MiB (0%)
Title : Iberian
Language : Portuguese
Default : No
Forced : No

Text #29
ID : 32
Format : PGS
Muxing mode : zlib
Codec ID : S_HDMV/PGS
Codec ID/Info : Picture based subtitle format used on BDs/HD-DVDs
Duration : 2 h 19 min
Bit rate : 23.9 kb/s
Frame rate : 0.295 FPS
Count of elements : 2464
Stream size : 23.8 MiB (0%)
Language : Romanian
Default : No
Forced : No

Text #30
ID : 33
Format : PGS
Muxing mode : zlib
Codec ID : S_HDMV/PGS
Codec ID/Info : Picture based subtitle format used on BDs/HD-DVDs
Duration : 2 h 19 min
Bit rate : 25.4 kb/s
Frame rate : 0.336 FPS
Count of elements : 2808
Stream size : 25.3 MiB (0%)
Language : Russian
Default : No
Forced : No

Text #31
ID : 34
Format : PGS
Muxing mode : zlib
Codec ID : S_HDMV/PGS
Codec ID/Info : Picture based subtitle format used on BDs/HD-DVDs
Duration : 2 h 19 min
Bit rate : 24.3 kb/s
Frame rate : 0.334 FPS
Count of elements : 2792
Stream size : 24.2 MiB (0%)
Language : Serbian
Default : No
Forced : No

Text #32
ID : 35
Format : PGS
Muxing mode : zlib
Codec ID : S_HDMV/PGS
Codec ID/Info : Picture based subtitle format used on BDs/HD-DVDs
Duration : 2 h 19 min
Bit rate : 19.3 kb/s
Frame rate : 0.316 FPS
Count of elements : 2642
Stream size : 19.2 MiB (0%)
Language : Slovenian
Default : No
Forced : No

Text #33
ID : 36
Format : PGS
Muxing mode : zlib
Codec ID : S_HDMV/PGS
Codec ID/Info : Picture based subtitle format used on BDs/HD-DVDs
Duration : 2 h 19 min
Bit rate : 24.9 kb/s
Frame rate : 0.328 FPS
Count of elements : 2742
Stream size : 24.8 MiB (0%)
Title : Castilian
Language : Spanish
Default : No
Forced : No

Text #34
ID : 37
Format : PGS
Muxing mode : zlib
Codec ID : S_HDMV/PGS
Codec ID/Info : Picture based subtitle format used on BDs/HD-DVDs
Duration : 2 h 19 min
Bit rate : 26.7 kb/s
Frame rate : 0.334 FPS
Count of elements : 2788
Stream size : 26.6 MiB (0%)
Title : Latin American
Language : Spanish
Default : No
Forced : No

Text #35
ID : 38
Format : PGS
Muxing mode : zlib
Codec ID : S_HDMV/PGS
Codec ID/Info : Picture based subtitle format used on BDs/HD-DVDs
Duration : 2 h 19 min
Bit rate : 21.1 kb/s
Frame rate : 0.287 FPS
Count of elements : 2398
Stream size : 21.0 MiB (0%)
Language : Swedish
Default : No
Forced : No

Text #36
ID : 39
Format : PGS
Muxing mode : zlib
Codec ID : S_HDMV/PGS
Codec ID/Info : Picture based subtitle format used on BDs/HD-DVDs
Duration : 2 h 19 min
Bit rate : 24.8 kb/s
Frame rate : 0.334 FPS
Count of elements : 2790
Stream size : 24.7 MiB (0%)
Language : Thai
Default : No
Forced : No

Text #37
ID : 40
Format : PGS
Muxing mode : zlib
Codec ID : S_HDMV/PGS
Codec ID/Info : Picture based subtitle format used on BDs/HD-DVDs
Duration : 2 h 19 min
Bit rate : 25.7 kb/s
Frame rate : 0.330 FPS
Count of elements : 2756
Stream size : 25.6 MiB (0%)
Language : Turkish
Default : No
Forced : No

Text #38
ID : 41
Format : PGS
Muxing mode : zlib
Codec ID : S_HDMV/PGS
Codec ID/Info : Picture based subtitle format used on BDs/HD-DVDs
Duration : 2 h 19 min
Bit rate : 37.4 kb/s
Frame rate : 0.394 FPS
Count of elements : 3312
Stream size : 37.5 MiB (0%)
Title : Trivia
Language : English
Default : No
Forced : No

Text #39
ID : 42
Format : PGS
Muxing mode : zlib
Codec ID : S_HDMV/PGS
Codec ID/Info : Picture based subtitle format used on BDs/HD-DVDs
Duration : 2 h 19 min
Bit rate : 30.4 kb/s
Frame rate : 0.402 FPS
Count of elements : 3376
Stream size : 30.4 MiB (0%)
Title : Trivia
Language : Chinese
Default : No
Forced : No

Text #40
ID : 43
Format : PGS
Muxing mode : zlib
Codec ID : S_HDMV/PGS
Codec ID/Info : Picture based subtitle format used on BDs/HD-DVDs
Duration : 2 h 19 min
Bit rate : 28.8 kb/s
Frame rate : 0.284 FPS
Count of elements : 2384
Stream size : 28.8 MiB (0%)
Title : Trivia
Language : Danish
Default : No
Forced : No

Text #41
ID : 44
Format : PGS
Muxing mode : zlib
Codec ID : S_HDMV/PGS
Codec ID/Info : Picture based subtitle format used on BDs/HD-DVDs
Duration : 2 h 19 min
Bit rate : 32.6 kb/s
Frame rate : 0.361 FPS
Count of elements : 3030
Stream size : 32.7 MiB (0%)
Title : Trivia
Language : Dutch
Default : No
Forced : No

Text #42
ID : 45
Format : PGS
Muxing mode : zlib
Codec ID : S_HDMV/PGS
Codec ID/Info : Picture based subtitle format used on BDs/HD-DVDs
Duration : 2 h 19 min
Bit rate : 33.8 kb/s
Frame rate : 0.346 FPS
Count of elements : 2902
Stream size : 33.8 MiB (0%)
Title : Trivia
Language : Finnish
Default : No
Forced : No

Text #43
ID : 46
Format : PGS
Muxing mode : zlib
Codec ID : S_HDMV/PGS
Codec ID/Info : Picture based subtitle format used on BDs/HD-DVDs
Duration : 2 h 19 min
Bit rate : 31.8 kb/s
Frame rate : 0.394 FPS
Count of elements : 3310
Stream size : 31.8 MiB (0%)
Title : Trivia
Language : French
Default : No
Forced : No

Text #44
ID : 47
Format : PGS
Muxing mode : zlib
Codec ID : S_HDMV/PGS
Codec ID/Info : Picture based subtitle format used on BDs/HD-DVDs
Duration : 2 h 19 min
Bit rate : 39.2 kb/s
Frame rate : 0.403 FPS
Count of elements : 3382
Stream size : 39.2 MiB (0%)
Title : Trivia
Language : German
Default : No
Forced : No

Text #45
ID : 48
Format : PGS
Muxing mode : zlib
Codec ID : S_HDMV/PGS
Codec ID/Info : Picture based subtitle format used on BDs/HD-DVDs
Duration : 2 h 19 min
Bit rate : 35.4 kb/s
Frame rate : 0.395 FPS
Count of elements : 3320
Stream size : 35.4 MiB (0%)
Title : Trivia
Language : Italian
Default : No
Forced : No

Text #46
ID : 49
Format : PGS
Muxing mode : zlib
Codec ID : S_HDMV/PGS
Codec ID/Info : Picture based subtitle format used on BDs/HD-DVDs
Duration : 2 h 10 min
Bit rate : 37.3 kb/s
Frame rate : 0.620 FPS
Count of elements : 4867
Stream size : 34.9 MiB (0%)
Title : Trivia
Language : Japanese
Default : No
Forced : No

Text #47
ID : 50
Format : PGS
Muxing mode : zlib
Codec ID : S_HDMV/PGS
Codec ID/Info : Picture based subtitle format used on BDs/HD-DVDs
Duration : 2 h 19 min
Bit rate : 22.0 kb/s
Frame rate : 0.395 FPS
Count of elements : 3316
Stream size : 22.0 MiB (0%)
Title : Trivia
Language : Korean
Default : No
Forced : No

Text #48
ID : 51
Format : PGS
Muxing mode : zlib
Codec ID : S_HDMV/PGS
Codec ID/Info : Picture based subtitle format used on BDs/HD-DVDs
Duration : 2 h 19 min
Bit rate : 33.4 kb/s
Frame rate : 0.389 FPS
Count of elements : 3270
Stream size : 33.4 MiB (0%)
Title : Trivia
Language : Norwegian
Default : No
Forced : No

Text #49
ID : 52
Format : PGS
Muxing mode : zlib
Codec ID : S_HDMV/PGS
Codec ID/Info : Picture based subtitle format used on BDs/HD-DVDs
Duration : 2 h 19 min
Bit rate : 34.1 kb/s
Frame rate : 0.395 FPS
Count of elements : 3316
Stream size : 34.1 MiB (0%)
Title : Trivia - Brazilian
Language : Portuguese
Default : No
Forced : No

Text #50
ID : 53
Format : PGS
Muxing mode : zlib
Codec ID : S_HDMV/PGS
Codec ID/Info : Picture based subtitle format used on BDs/HD-DVDs
Duration : 2 h 19 min
Bit rate : 36.6 kb/s
Frame rate : 0.401 FPS
Count of elements : 3370
Stream size : 36.7 MiB (0%)
Title : Trivia - Iberian
Language : Portuguese
Default : No
Forced : No

Text #51
ID : 54
Format : PGS
Muxing mode : zlib
Codec ID : S_HDMV/PGS
Codec ID/Info : Picture based subtitle format used on BDs/HD-DVDs
Duration : 2 h 19 min
Bit rate : 34.7 kb/s
Frame rate : 0.392 FPS
Count of elements : 3296
Stream size : 34.7 MiB (0%)
Title : Trivia - Castilian
Language : Spanish
Default : No
Forced : No

Text #52
ID : 55
Format : PGS
Muxing mode : zlib
Codec ID : S_HDMV/PGS
Codec ID/Info : Picture based subtitle format used on BDs/HD-DVDs
Duration : 2 h 19 min
Bit rate : 32.9 kb/s
Frame rate : 0.397 FPS
Count of elements : 3330
Stream size : 32.9 MiB (0%)
Title : Trivia - Latin American
Language : Spanish
Default : No
Forced : No

Text #53
ID : 56
Format : PGS
Muxing mode : zlib
Codec ID : S_HDMV/PGS
Codec ID/Info : Picture based subtitle format used on BDs/HD-DVDs
Duration : 2 h 19 min
Bit rate : 29.1 kb/s
Frame rate : 0.361 FPS
Count of elements : 3034
Stream size : 29.1 MiB (0%)
Title : Trivia
Language : Swedish
Default : No
Forced : No

Menu
00:00:00.000 : en:You're Practice
00:03:39.219 : en:More Than Just a Man
00:07:31.117 : en:What Do You Fear?
00:11:34.026 : en:Tragedy
00:16:15.641 : en:The Will to Act
00:19:44.349 : en:This House
00:24:19.291 : en:Not One of Your Good People
00:28:24.703 : en:Carmine Falcone
00:31:25.383 : en:Embrace Your Fear
00:35:53.818 : en:Gotham Must Be Destroyed
00:38:24.635 : en:Monastery Mayhem
00:41:14.638 : en:Incorruptible Symbol
00:43:08.252 : en:Nest of Bats
00:46:57.981 : en:Welcome Home
00:49:43.981 : en:Applied Sciences
00:53:26.203 : en:Gordon's Visitor
00:55:55.018 : en:Does It Come in Black?
00:58:02.145 : en:Secrets of Scary People
01:03:31.808 : en:Rattle the Cages
01:05:53.115 : en:Missing Weapon
01:08:38.781 : en:More Inside
01:11:25.781 : en:Crane's Mask
01:13:19.561 : en:Do I Look Like a Cop?
01:16:16.238 : en:Lighten Up
01:19:50.285 : en:Work to Do
01:23:54.362 : en:Arkham's Basement Secrets
01:29:02.670 : en:Winged Backup
01:32:36.717 : en:Tumbler on the Roof
01:37:49.029 : en:The Monster of Yours
01:40:33.694 : en:Dual Identities
01:45:08.969 : en:Purging Fire
01:49:32.065 : en:Inferno Rescue
01:51:29.182 : en:Spread the Word: Panic
01:54:49.048 : en:What Defines Me
01:58:11.084 : en:Catching a Train
02:01:54.974 : en:Not Kill But Not Save
02:05:01.160 : en:New Owner
02:06:06.892 : en:This Is Your Mask
02:09:18.417 : en:Calling Card
02:10:57.015 : en:End Credits


Source Information
Code: Batman.Begins.2005.1080p.BluRay.REMUX.AVC.DTS-HD.MA.5.1-EPSiLON (33.4 GB) (Thanks!)


We have no issue with individuals posting or re-uploading our torrents on a platform we aren't on. However, if this is something you'd like to do, please do so in a 'as-is' format. We ask that you do not create a new torrent, include all descriptions you see above including the SEV logo, tags, notes and screenshots. If you'd like to become a permanent poster on a website we don't post to, feel free to get in contact with a Sublime Encoded Video member.

We are recruiting/training new members for SEV & seedbox providers as well as people to help out with subtitles.
As you already know, we deliver quality, so you know the standard.
If you're interested, feel free to contact any of the team members.