PXT24

PXT24

Blue Lock : Season 01 S01 [2022-2023] COMPLETE 1080p BDRip x265 PCM 2.0 Kira [SEV]
  • Category
    : Anime
  • Type
    : Subbed
  • Language
    : Japanese
  • Total size
    : 89.20 GB
  • Date uploaded
    : 06 Feb ,2024

SEV-logo

Source vs Encode :- Link

Screenshot's
CG8glB8P_t VLH2bKMb_t 7pDDz5ST_t q59Ur0Qr_t xZvBGnG9_t EoTZhIxz_t 73OpewAp_t mUkUN9C7_t X13HEdf6_t QUNvuF75_t


Media Information
Code: General
Unique ID : 82912820204023162074505434598799808513 (0x3E606DA668BEEDA13AEA643391CF9801)
Complete name : Blue Lock - Episode 01 - Dream 1080p BDRip x265 PCM 2.0 Kira [SEV].mkv
Format : Matroska
Format version : Version 4
File size : 2.83 GiB
Duration : 23 min 17 s
Overall bit rate : 17.4 Mb/s
Frame rate : 23.976 FPS
Movie name : | ブルーロック (Burū Rokku) / Blue Lock : Episode 01 : 夢 (Yume) / Dream | 1080p | BDRip | x265 | PCM 2.0 @ 2304 Kbps | Kira [SEV] |
Encoded date : 2024-01-06 09:55:53 UTC
Writing application : mkvmerge v82.0 ('I'm The President') 64-bit
Writing library : libebml v1.4.5 + libmatroska v1.7.1
Attachments : arialbd.ttf / arialbi.ttf / Arial_0.ttf / ariblk_0.TTF / calibri.ttf / comicbd.ttf / comic_0.ttf / georgiab.ttf / georgiaz.ttf / georgia_0.ttf / impact_0.ttf / Tahoma_0.ttf / times_0.ttf / trebuc_0.ttf / verdana_0.ttf / AdobeArabic-Bold.otf / AdobeArabic-BoldItalic.otf / AdobeArabic-Italic.otf / AdobeArabic-Regular.otf

Video
ID : 1
Format : HEVC
Format/Info : High Efficiency Video Coding
Format profile : Main 10@L4@Main
Codec ID : V_MPEGH/ISO/HEVC
Duration : 23 min 17 s
Bit rate : 15.0 Mb/s
Width : 1 920 pixels
Height : 1 080 pixels
Display aspect ratio : 16:9
Frame rate mode : Variable
Frame rate : 23.976 FPS
Color space : YUV
Chroma subsampling : 4:2:0
Bit depth : 10 bits
Bits/(Pixel*Frame) : 0.303
Stream size : 2.45 GiB (86%)
Title : | ブルーロック (Burū Rokku) / Blue Lock : Episode 01 : 夢 (Yume) / Dream | 1080p | BDRip | x265 | PCM 2.0 @ 2304 Kbps | Kira [SEV] |
Writing library : x265 3.5+110-8ee01d45b:[Windows][MSVC 1937][64 bit] 10bit
Encoding settings : cpuid=1111039 / frame-threads=5 / numa-pools=32 / wpp / no-pmode / no-pme / no-psnr / no-ssim / log-level=2 / input-csp=1 / input-res=1920x1080 / interlace=0 / total-frames=16748 / level-idc=0 / high-tier=1 / uhd-bd=0 / ref=5 / no-allow-non-conformance / no-repeat-headers / annexb / no-aud / no-eob / no-eos / no-hrd / info / hash=0 / temporal-layers=0 / open-gop / min-keyint=23 / keyint=250 / gop-lookahead=0 / bframes=16 / b-adapt=2 / b-pyramid / bframe-bias=0 / rc-lookahead=100 / lookahead-slices=0 / scenecut=40 / no-hist-scenecut / radl=0 / no-splice / no-intra-refresh / ctu=64 / min-cu-size=8 / no-rect / no-amp / max-tu-size=32 / tu-inter-depth=4 / tu-intra-depth=4 / limit-tu=4 / rdoq-level=2 / dynamic-rd=0.00 / no-ssim-rd / signhide / no-tskip / nr-intra=0 / nr-inter=0 / no-constrained-intra / no-strong-intra-smoothing / max-merge=5 / limit-refs=0 / limit-modes / me=3 / subme=7 / merange=92 / temporal-mvp / no-frame-dup / no-hme / weightp / weightb / no-analyze-src-pics / deblock=-3:-3 / no-sao / no-sao-non-deblock / rd=4 / selective-sao=0 / no-early-skip / rskip / no-fast-intra / no-tskip-fast / no-cu-lossless / b-intra / no-splitrd-skip / rdpenalty=0 / psy-rd=1.50 / psy-rdoq=1.00 / no-rd-refine / no-lossless / cbqpoffs=0 / crqpoffs=0 / rc=crf / crf=12.0 / qcomp=0.60 / qpstep=4 / stats-write=0 / stats-read=0 / ipratio=1.40 / pbratio=1.30 / aq-mode=3 / aq-strength=1.00 / cutree / zone-count=0 / no-strict-cbr / qg-size=32 / no-rc-grain / qpmax=69 / qpmin=0 / no-const-vbv / sar=0 / overscan=0 / videoformat=5 / range=0 / colorprim=2 / transfer=2 / colormatrix=2 / chromaloc=0 / display-window=0 / cll=0,0 / min-luma=0 / max-luma=1023 / log2-max-poc-lsb=8 / vui-timing-info / vui-hrd-info / slices=1 / no-opt-qp-pps / no-opt-ref-list-length-pps / no-multi-pass-opt-rps / scenecut-bias=0.05 / no-opt-cu-delta-qp / no-aq-motion / no-hdr10 / no-hdr10-opt / no-dhdr10-opt / no-idr-recovery-sei / analysis-reuse-level=0 / analysis-save-reuse-level=0 / analysis-load-reuse-level=0 / scale-factor=0 / refine-intra=0 / refine-inter=0 / refine-mv=1 / refine-ctu-distortion=0 / no-limit-sao / ctu-info=0 / no-lowpass-dct / refine-analysis-type=0 / copy-pic=1 / max-ausize-factor=1.0 / no-dynamic-refine / no-single-sei / no-hevc-aq / no-svt / no-field / qp-adaptation-range=1.00 / scenecut-aware-qp=0conformance-window-offsets / right=0 / bottom=0 / decoder-max-rate=0 / no-vbv-live-multi-pass / no-mcstf / no-sbrc
Language : Japanese
Default : Yes
Forced : No

Audio
ID : 2
ID in the original source m : 4352 (0x1100)
Format : PCM
Format settings : Little / Signed
Codec ID : A_PCM/INT/LIT
Duration : 23 min 17 s
Bit rate mode : Constant
Bit rate : 2 304 kb/s
Channel(s) : 2 channels
Sampling rate : 48.0 kHz
Frame rate : 30.000 FPS (1600 SPF)
Bit depth : 24 bits
Stream size : 384 MiB (13%)
Title : Japanese BD PCM 2..0 @ 2304 Kbps
Language : Japanese
Default : Yes
Forced : No
Original source medium : Blu-ray

Text #1
ID : 3
Format : ASS
Codec ID : S_TEXT/ASS
Codec ID/Info : Advanced Sub Station Alpha
Duration : 21 min 31 s
Bit rate : 189 b/s
Frame rate : 0.301 FPS
Count of elements : 389
Compression mode : Lossless
Stream size : 29.8 KiB (0%)
Title : English ASS
Language : English
Default : Yes
Forced : No

Text #2
ID : 4
Format : ASS
Codec ID : S_TEXT/ASS
Codec ID/Info : Advanced Sub Station Alpha
Duration : 22 min 58 s
Bit rate : 259 b/s
Frame rate : 0.329 FPS
Count of elements : 454
Compression mode : Lossless
Stream size : 43.6 KiB (0%)
Language : French
Default : No
Forced : No

Text #3
ID : 5
Format : ASS
Codec ID : S_TEXT/ASS
Codec ID/Info : Advanced Sub Station Alpha
Duration : 21 min 45 s
Bit rate : 233 b/s
Frame rate : 0.316 FPS
Count of elements : 412
Compression mode : Lossless
Stream size : 37.3 KiB (0%)
Language : German
Default : No
Forced : No

Text #4
ID : 6
Format : ASS
Codec ID : S_TEXT/ASS
Codec ID/Info : Advanced Sub Station Alpha
Duration : 21 min 30 s
Bit rate : 194 b/s
Frame rate : 0.348 FPS
Count of elements : 449
Compression mode : Lossless
Stream size : 30.7 KiB (0%)
Language : Italian
Default : No
Forced : No

Text #5
ID : 7
Format : ASS
Codec ID : S_TEXT/ASS
Codec ID/Info : Advanced Sub Station Alpha
Duration : 21 min 31 s
Bit rate : 179 b/s
Frame rate : 0.285 FPS
Count of elements : 368
Compression mode : Lossless
Stream size : 28.4 KiB (0%)
Title : [ESP]
Language : Spanish
Default : No
Forced : No

Text #6
ID : 8
Format : ASS
Codec ID : S_TEXT/ASS
Codec ID/Info : Advanced Sub Station Alpha
Duration : 21 min 31 s
Bit rate : 179 b/s
Frame rate : 0.285 FPS
Count of elements : 368
Compression mode : Lossless
Stream size : 28.3 KiB (0%)
Title : [LAT]
Language : Spanish
Default : No
Forced : No

Text #7
ID : 9
Format : ASS
Codec ID : S_TEXT/ASS
Codec ID/Info : Advanced Sub Station Alpha
Duration : 21 min 31 s
Bit rate : 200 b/s
Frame rate : 0.301 FPS
Count of elements : 388
Compression mode : Lossless
Stream size : 31.6 KiB (0%)
Language : Portuguese
Default : No
Forced : No

Text #8
ID : 10
Format : ASS
Codec ID : S_TEXT/ASS
Codec ID/Info : Advanced Sub Station Alpha
Duration : 21 min 31 s
Bit rate : 326 b/s
Frame rate : 0.343 FPS
Count of elements : 443
Compression mode : Lossless
Stream size : 51.5 KiB (0%)
Language : Russian
Default : No
Forced : No

Text #9
ID : 11
Format : ASS
Codec ID : S_TEXT/ASS
Codec ID/Info : Advanced Sub Station Alpha
Duration : 21 min 31 s
Bit rate : 231 b/s
Frame rate : 0.304 FPS
Count of elements : 392
Compression mode : Lossless
Stream size : 36.5 KiB (0%)
Language : Arabic
Default : No
Forced : No

Menu
00:00:00.000 : ja:Chapter 01
00:04:44.993 : ja:Chapter 02
00:13:28.974 : ja:Chapter 03
00:21:46.013 : ja:Chapter 04


Source Information
Blue.Lock.2023.COMPLETE.BLURAY (KoushinRip + WITSTUDIO) (220 GB) (Thanks!)
Code: General
Unique ID : 326951832048292855246955487652642819409 (0xF5F8A1E317B1824FDB5A47BFB1840D51)
Complete name : BLUE_LOCK_D01_REMUX.mkv
Format : Matroska
Format version : Version 2
File size : 37.4 GiB
Duration : 2 h 17 min
Overall bit rate mode : Variable
Overall bit rate : 39.0 Mb/s
Frame rate : 23.976 FPS
Movie name : ブル―ロック1
Encoded date : 2024-01-03 10:17:45 UTC
Writing application : MakeMKV v1.17.3 win(x64-release)
Writing library : libmakemkv v1.17.3 (1.3.10/1.5.2) win(x64-release)

Video
ID : 1
ID in the original source m : 4113 (0x1011)
Format : AVC
Format/Info : Advanced Video Codec
Format profile : [email protected]
Format settings : CABAC / 4 Ref Frames
Format settings, CABAC : Yes
Format settings, Reference : 4 frames
Codec ID : V_MPEG4/ISO/AVC
Duration : 2 h 17 min
Bit rate mode : Variable
Bit rate : 36.7 Mb/s
Maximum bit rate : 40.0 Mb/s
Width : 1 920 pixels
Height : 1 080 pixels
Display aspect ratio : 16:9
Frame rate mode : Constant
Frame rate : 23.976 (24000/1001) FPS
Color space : YUV
Chroma subsampling : 4:2:0
Bit depth : 8 bits
Scan type : Progressive
Bits/(Pixel*Frame) : 0.739
Time code of first frame : 00:59:59:00
Stream size : 35.2 GiB (94%)
Language : English
Default : No
Forced : No
Original source medium : Blu-ray

Audio
ID : 2
ID in the original source m : 4352 (0x1100)
Format : PCM
Format settings : Little / Signed
Codec ID : A_PCM/INT/LIT
Duration : 2 h 17 min
Bit rate mode : Constant
Bit rate : 2 304 kb/s
Channel(s) : 2 channels
Sampling rate : 48.0 kHz
Frame rate : 30.000 FPS (1600 SPF)
Bit depth : 24 bits
Stream size : 2.21 GiB (6%)
Title : Stereo
Language : Japanese
Default : Yes
Forced : No
Original source medium : Blu-ray

Menu
00:00:00.000 : ja:Chapter 01
00:04:44.993 : ja:Chapter 02
00:13:28.974 : ja:Chapter 03
00:21:46.013 : ja:Chapter 04
00:23:17.062 : ja:Chapter 05
00:23:46.091 : ja:Chapter 06
00:25:16.056 : ja:Chapter 07
00:35:03.059 : ja:Chapter 08
00:44:45.599 : ja:Chapter 09
00:46:19.109 : ja:Chapter 10
00:48:18.103 : ja:Chapter 11
00:49:48.110 : ja:Chapter 12
00:57:02.127 : ja:Chapter 13
01:07:47.104 : ja:Chapter 14
01:09:18.154 : ja:Chapter 15
01:11:05.177 : ja:Chapter 16
01:12:35.142 : ja:Chapter 17
01:22:43.124 : ja:Chapter 18
01:30:15.201 : ja:Chapter 19
01:31:46.167 : ja:Chapter 20
01:32:12.193 : ja:Chapter 21
01:38:58.599 : ja:Chapter 22
01:40:28.689 : ja:Chapter 23
01:53:12.660 : ja:Chapter 24
01:54:43.710 : ja:Chapter 25
01:55:26.753 : ja:Chapter 26
01:56:56.718 : ja:Chapter 27
02:06:22.783 : ja:Chapter 28
02:15:29.830 : ja:Chapter 29
02:17:01.880 : ja:Chapter 30


We have no issue with individuals posting or re-uploading our torrents on a platform we aren't on. However, if this is something you'd like to do, please do so in a 'as-is' format. We ask that you do not create a new torrent, include all descriptions you see above including the SEV logo, tags, notes and screenshots. If you'd like to become a permanent poster on a website we don't post to, feel free to get in contact with a Sublime Encoded Video member.

We are recruiting/training new members for SEV & seedbox providers as well as people to help out with subtitles.
As you already know, we deliver quality, so you know the standard.
If you're interested, feel free to contact any of the team members.


Blue Lock - Season 01 [2022-2023] COMPLETE 1080p BDRip x265 PCM 2.0 Kira [SEV]

Extras

AMVs

Blue Lock - Additional Time

Blue Lock - Broadcast Room (Business Trip Edition)

Blue Lock - Super Fast Screening Version ~Blue Prison (Dormitory Edition)

Character PVs

Creditless OP's & ED's

TV Spots

Trailers