PXT24

PXT24

Cobra Kai (2018) S03 Dual Audio (English+Hindi) 1080p WEBDL [ProtonMovies]
  • Category
    : TV
  • Type
    : HD
  • Language
    : Hindi
  • Total size
    : 14.50 GB
  • Date uploaded
    : 10 Jul ,2024

Cobra Kai (2018) S03 Dual Audio (English+Hindi) 1080p WEBDL [ProtonMovies]

Proudly Provided by ProtonMovies

Info -
IMDB - imdb.com/title/tt7221388

Plot -
Decades after their 1984 All Valley Karate Tournament bout, a middle-aged Daniel LaRusso and Johnny Lawrence find themselves martial-arts rivals again.

ProtonMovies Profile --> 1337x.to/user/ProtonMovies

DON'T FORGET TO SEED!!! SEEDING ENABLES US TO PROVIDE QUALITY SHARES

Language :-
1. English
2. Hindi [Default]


Screenshots :-
Screenshot-Proton-Movies-1
Screenshot-Proton-Movies-2
Screenshot-Proton-Movies-3
Screenshot-Proton-Movies-4
Screenshot-Proton-Movies-5


File Info :

Quote:

General
Complete name : Cobra Kai S03E01 [ProtonMovies].mkv
Format : Matroska
Format version : Version 4
File size : 1.33 GiB
Duration : 31 min 36 s
Overall bit rate mode : Variable
Overall bit rate : 6 025 kb/s
Frame rate : 23.976 FPS
Movie name : Cobra Kai S03E01 [ProtonMovies]
Description : Miguel's fighting for his life, Robby's missing, and Daniel and Johnny's reputations are in tatters as the community reacts to the West Valley brawl.
Writing application : Lavf60.3.100
Writing library : Lavf60.3.100
Cover : Yes
ErrorDetectionType : Per level 1
Attachments : cover.png
DATE : 2021
EPISODE_ID : 1
SEASON_NUMBER : 3
SHOW : Cobra Kai

Video
ID : 1
Format : AVC
Format/Info : Advanced Video Codec
Format profile : Main@L4
Format settings : CABAC / 3 Ref Frames
Format settings, CABAC : Yes
Format settings, Reference frames : 3 frames
Codec ID : V_MPEG4/ISO/AVC
Duration : 31 min 36 s
Bit rate mode : Variable
Bit rate : 4 625 kb/s
Nominal bit rate : 5 000 kb/s
Maximum bit rate : 7 500 kb/s
Width : 1 920 pixels
Height : 1 080 pixels
Display aspect ratio : 16:9
Frame rate mode : Constant
Frame rate : 23.976 (24000/1001) FPS
Color space : YUV
Chroma subsampling : 4:2:0
Bit depth : 8 bits
Scan type : Progressive
Bits/(Pixel*Frame) : 0.093
Stream size : 1.02 GiB (77%)
Writing library : x264 core 148 r2727 7d026e8
Encoding settings : cabac=1 / ref=3 / deblock=1:0:0 / analyse=0x1:0x111 / me=umh / subme=10 / psy=1 / psy_rd=1.00:0.00 / mixed_ref=1 / me_range=24 / chroma_me=1 / trellis=2 / 8x8dct=0 / cqm=0 / deadzone=21,11 / fast_pskip=1 / chroma_qp_offset=-2 / threads=6 / lookahead_threads=1 / sliced_threads=0 / nr=0 / decimate=1 / interlaced=0 / bluray_compat=0 / stitchable=1 / constrained_intra=0 / bframes=2 / b_pyramid=0 / b_adapt=2 / b_bias=0 / direct=3 / weightb=1 / open_gop=0 / weightp=2 / keyint=240 / keyint_min=121 / scenecut=0 / intra_refresh=0 / rc_lookahead=48 / rc=2pass / mbtree=1 / bitrate=5000 / ratetol=1.0 / qcomp=0.50 / qpmin=6 / qpmax=51 / qpstep=4 / cplxblur=20.0 / qblur=0.5 / vbv_maxrate=7500 / vbv_bufsize=10000 / nal_hrd=vbr / filler=0 / ip_ratio=1.40 / aq=1:1.00
Default : Yes
Forced : No
VENDOR_ID : [0][0][0][0]

Audio #1
ID : 2
Format : E-AC-3
Format/Info : Enhanced AC-3
Commercial name : Dolby Digital Plus
Codec ID : A_EAC3
Duration : 31 min 36 s
Bit rate mode : Constant
Bit rate : 640 kb/s
Channel(s) : 6 channels
Channel layout : L R C LFE Ls Rs
Sampling rate : 48.0 kHz
Frame rate : 31.250 FPS (1536 SPF)
Bit depth : 32 bits
Compression mode : Lossy
Stream size : 145 MiB (11%)
Title : English [Original]
Language : English
Service kind : Complete Main
Default : No
Forced : No
VENDOR_ID : [0][0][0][0]
Dialog Normalization : -23 dB
compr : -0.28 dB
dialnorm_Average : -23 dB
dialnorm_Minimum : -23 dB
dialnorm_Maximum : -23 dB

Audio #2
ID : 3
Format : E-AC-3
Format/Info : Enhanced AC-3
Commercial name : Dolby Digital Plus
Codec ID : A_EAC3
Duration : 31 min 36 s
Bit rate mode : Constant
Bit rate : 640 kb/s
Channel(s) : 6 channels
Channel layout : L R C LFE Ls Rs
Sampling rate : 48.0 kHz
Frame rate : 31.250 FPS (1536 SPF)
Bit depth : 32 bits
Compression mode : Lossy
Stream size : 145 MiB (11%)
Title : Hindi
Language : Hindi
Service kind : Complete Main
Default : Yes
Forced : No
VENDOR_ID : [0][0][0][0]
Dialog Normalization : -24 dB
compr : -0.28 dB
dialnorm_Average : -24 dB
dialnorm_Minimum : -24 dB
dialnorm_Maximum : -24 dB

Text #1
ID : 4
Format : UTF-8
Codec ID : S_TEXT/UTF8
Codec ID/Info : UTF-8 Plain Text
Duration : 16 min 0 s
Title : English [ForcedNarrative]
Writing library : Lavc60.3.100 srt
Language : English
Default : No
Forced : No

Text #2
ID : 5
Format : UTF-8
Codec ID : S_TEXT/UTF8
Codec ID/Info : UTF-8 Plain Text
Duration : 28 min 58 s
Title : English [CC]
Writing library : Lavc60.3.100 srt
Language : English
Default : Yes
Forced : No

Text #3
ID : 6
Format : UTF-8
Codec ID : S_TEXT/UTF8
Codec ID/Info : UTF-8 Plain Text
Duration : 29 min 45 s
Title : Hindi [ForcedNarrative]
Writing library : Lavc60.3.100 srt
Language : Hindi (Latn)
Default : No
Forced : No





Cobra Kai (2018) S03 Dual Audio (English+Hindi) 1080p WEBDL [ProtonMovies]