PXT24

PXT24

Cobra Kai (2018) S05 Dual Audio (English+Hindi) 1080p WEBDL [ProtonMovies]
  • Category
    : TV
  • Type
    : HD
  • Language
    : Hindi
  • Total size
    : 14.60 GB
  • Date uploaded
    : 10 Jul ,2024

Cobra Kai (2018) S05 Dual Audio (English+Hindi) 1080p WEBDL [ProtonMovies]

Proudly Provided by ProtonMovies

Info -
IMDB - imdb.com/title/tt7221388

Plot -
Decades after their 1984 All Valley Karate Tournament bout, a middle-aged Daniel LaRusso and Johnny Lawrence find themselves martial-arts rivals again.

ProtonMovies Profile --> 1337x.to/user/ProtonMovies

DON'T FORGET TO SEED!!! SEEDING ENABLES US TO PROVIDE QUALITY SHARES

Language :-
1. English
2. Hindi [Default]


Screenshots :-
Screenshot-Proton-Movies-1
Screenshot-Proton-Movies-2
Screenshot-Proton-Movies-3


File Info :

Quote:

General
Complete name : Cobra Kai S05E01 [ProtonMovies].mkv
Format : Matroska
Format version : Version 4
File size : 1.23 GiB
Duration : 31 min 26 s
Overall bit rate : 5 600 kb/s
Frame rate : 23.976 FPS
Movie name : Cobra Kai S05E01 [ProtonMovies]
Description : Daniel’s new ally-turned-housemate tests Amanda’s patience. Miguel searches for his father in Mexico. Terry starts to transform Cobra Kai.
Writing application : Lavf60.3.100
Writing library : Lavf60.3.100
Cover : Yes
ErrorDetectionType : Per level 1
Attachments : cover.png
DATE : 2022
EPISODE_ID : 1
SEASON_NUMBER : 5
SHOW : Cobra Kai

Video
ID : 1
Format : HEVC
Format/Info : High Efficiency Video Coding
Format profile : Main 10@L4@Main
HDR format : SMPTE ST 2086, HDR10 compatible
Codec ID : V_MPEGH/ISO/HEVC
Duration : 31 min 26 s
Bit rate : 4 208 kb/s
Width : 1 920 pixels
Height : 1 080 pixels
Display aspect ratio : 16:9
Frame rate mode : Constant
Frame rate : 23.976 (24000/1001) FPS
Color space : YUV
Chroma subsampling : 4:2:0 (Type 2)
Bit depth : 10 bits
Bits/(Pixel*Frame) : 0.085
Stream size : 946 MiB (75%)
Title : [email protected]
Default : Yes
Forced : No
Color range : Limited
Color primaries : BT.2020
Transfer characteristics : PQ
Matrix coefficients : BT.2020 non-constant
Mastering display color primaries : Display P3
Mastering display luminance : min: 0.0001 cd/m2, max: 1000 cd/m2
Maximum Content Light Level : 853 cd/m2
Maximum Frame-Average Light Level : 119 cd/m2
VENDOR_ID : [0][0][0][0]

Audio #1
ID : 2
Format : E-AC-3
Format/Info : Enhanced AC-3
Commercial name : Dolby Digital Plus
Codec ID : A_EAC3
Duration : 31 min 26 s
Bit rate mode : Constant
Bit rate : 640 kb/s
Channel(s) : 6 channels
Channel layout : L R C LFE Ls Rs
Sampling rate : 48.0 kHz
Frame rate : 31.250 FPS (1536 SPF)
Bit depth : 32 bits
Compression mode : Lossy
Stream size : 144 MiB (11%)
Title : English [Original]
Language : English
Service kind : Complete Main
Default : No
Forced : No
VENDOR_ID : [0][0][0][0]
Dialog Normalization : -22 dB
compr : -0.28 dB
dialnorm_Average : -22 dB
dialnorm_Minimum : -22 dB
dialnorm_Maximum : -22 dB

Audio #2
ID : 3
Format : E-AC-3
Format/Info : Enhanced AC-3
Commercial name : Dolby Digital Plus
Codec ID : A_EAC3
Duration : 31 min 26 s
Bit rate mode : Constant
Bit rate : 640 kb/s
Channel(s) : 6 channels
Channel layout : L R C LFE Ls Rs
Sampling rate : 48.0 kHz
Frame rate : 31.250 FPS (1536 SPF)
Bit depth : 32 bits
Compression mode : Lossy
Stream size : 144 MiB (11%)
Title : Hindi
Language : Hindi
Service kind : Complete Main
Default : Yes
Forced : No
VENDOR_ID : [0][0][0][0]
Dialog Normalization : -24 dB
compr : -0.28 dB
dialnorm_Average : -24 dB
dialnorm_Minimum : -24 dB
dialnorm_Maximum : -24 dB

Text #1
ID : 4
Format : UTF-8
Codec ID : S_TEXT/UTF8
Codec ID/Info : UTF-8 Plain Text
Duration : 25 min 29 s
Title : English [ForcedNarrative]
Writing library : Lavc60.3.100 srt
Language : English
Default : No
Forced : No

Text #2
ID : 5
Format : UTF-8
Codec ID : S_TEXT/UTF8
Codec ID/Info : UTF-8 Plain Text
Duration : 29 min 0 s
Title : English [CC]
Writing library : Lavc60.3.100 srt
Language : English
Default : Yes
Forced : No

Text #3
ID : 6
Format : UTF-8
Codec ID : S_TEXT/UTF8
Codec ID/Info : UTF-8 Plain Text
Duration : 29 min 2 s
Title : Hindi [ForcedNarrative]
Writing library : Lavc60.3.100 srt
Language : Hindi (Latn)
Default : No
Forced : No





Cobra Kai (2018) S05 Dual Audio (English+Hindi) 1080p WEBDL [ProtonMovies]