PXT24

PXT24

College Romance Season S04 1080p SONY WEBRip x265 Hindi DDP2.0 ESub - SP3LL
  • Category
    : TV
  • Type
    : HEVC/x265
  • Language
    : Hindi
  • Total size
    : 3.80 GB
  • Date uploaded
    : 13 Nov ,2023

College-Romance-Season-S04


Release Title
College Romance Season S04 1080p SONY WEBRip x265 Hindi DDP2.0 ESub - SP3LL

IMDB Link
https://www.imdb.com/title/tt8809646/

Screens2
vlcsnap-2023-11-13-02h32m25s376
vlcsnap-2023-11-13-02h32m26s500
vlcsnap-2023-11-13-02h32m29s903
vlcsnap-2023-11-13-02h32m31s774
vlcsnap-2023-11-13-02h32m33s180
vlcsnap-2023-11-13-02h32m36s072
vlcsnap-2023-11-13-02h32m38s520
vlcsnap-2023-11-13-02h32m40s497


Info
Quote: General
Complete name : College Romance - S04E01 - Aaya Hosh.mkv
Format : Matroska
Format version : Version 4
File size : 779 MiB
Duration : 34 min 37 s
Overall bit rate : 3 146 kb/s
Encoded date : UTC 2023-11-04 03:31:17
Writing application : mkvmerge v74.0.0 ('You Oughta Know') 64-bit
Writing library : libebml v1.4.4 + libmatroska v1.7.1

Video
ID : 1
Format : HEVC
Format/Info : High Efficiency Video Coding
Format profile : Main [email protected]@High
Codec ID : V_MPEGH/ISO/HEVC
Duration : 34 min 37 s
Bit rate : 3 016 kb/s
Width : 1 920 pixels
Height : 960 pixels
Display aspect ratio : 2.000
Frame rate mode : Constant
Frame rate : 25.000 FPS
Color space : YUV
Chroma subsampling : 4:2:0
Bit depth : 10 bits
Bits/(Pixel*Frame) : 0.065
Stream size : 747 MiB (96%)
Default : Yes
Forced : No
Color range : Limited
Color primaries : BT.709
Transfer characteristics : BT.709
Matrix coefficients : BT.709

Audio
ID : 2
Format : E-AC-3
Format/Info : Enhanced AC-3
Commercial name : Dolby Digital Plus
Codec ID : A_EAC3
Duration : 34 min 36 s
Bit rate mode : Constant
Bit rate : 128 kb/s
Channel(s) : 2 channels
Channel layout : L R
Sampling rate : 48.0 kHz
Frame rate : 31.250 FPS (1536 SPF)
Compression mode : Lossy
Stream size : 31.7 MiB (4%)
Language : Hindi
Service kind : Complete Main
Default : Yes
Forced : No

Text
ID : 3
Format : UTF-8
Codec ID : S_TEXT/UTF8
Codec ID/Info : UTF-8 Plain Text
Duration : 33 min 9 s
Bit rate : 54 b/s
Frame rate : 0.242 FPS
Count of elements : 482
Stream size : 13.2 KiB (0%)
Language : English
Default : No
Forced : No

Bmk4

College Romance Season S04 1080p SONY WEBRip x265 Hindi DDP2.0 ESub - SP3LL