PXT24

PXT24

Columbo.S09.720p.BluRay.x265-PROTON
  • Category
    : TV
  • Type
    : HEVC/x265
  • Language
    : English
  • Total size
    : 5.80 GB
  • Date uploaded
    : 02 Apr ,2024

INFO

General
Complete name : Columbo.S09E01.720p.BluRay.x265-PROTON.mp4
Format : MPEG-4
Format profile : Base Media
Codec ID : isom (isom/iso2/mp41)
File size : 949 MiB
Duration : 1 h 32 min
Overall bit rate : 1 436 kb/s
Writing application : Hybrik 1.247.21

Video
ID : 1
Format : HEVC
Format/Info : High Efficiency Video Coding
Format profile : [email protected]@Main
Codec ID : hvc1
Codec ID/Info : High Efficiency Video Coding
Duration : 1 h 32 min
Bit rate : 1 203 kb/s
Width : 1 280 pixels
Height : 720 pixels
Display aspect ratio : 16:9
Frame rate mode : Constant
Frame rate : 29.970 (30000/1001) FPS
Color space : YUV
Chroma subsampling : 4:2:0
Bit depth : 8 bits
Scan type : Progressive
Bits/(Pixel*Frame) : 0.044
Stream size : 795 MiB (84%)
Language : English
Color range : Limited
Color primaries : BT.709
Transfer characteristics : BT.709
Matrix coefficients : BT.709
Codec configuration box : hvcC

Audio
ID : 2
Format : AAC LC
Format/Info : Advanced Audio Codec Low Complexity
Codec ID : mp4a-40-2
Duration : 1 h 32 min
Source duration : 1 h 32 min
Source_Duration_LastFrame : -18 ms
Bit rate mode : Constant
Bit rate : 224 kb/s
Channel(s) : 2 channels
Channel layout : L R
Sampling rate : 48.0 kHz
Frame rate : 46.875 FPS (1024 SPF)
Compression mode : Lossy
Stream size : 148 MiB (16%)
Source stream size : 148 MiB (16%)
Language : English
Default : Yes
Alternate group : 1

SCREENSHOTS

Columbo-S09-E01-720p-Blu-Ray-x265-PROTON-002
Columbo-S09-E01-720p-Blu-Ray-x265-PROTON-005
Columbo-S09-E01-720p-Blu-Ray-x265-PROTON-008

===============================================================

PLEASE SEED FOR 48-72H!

===============================================================

Columbo.S09.720p.BluRay.x265-PROTON

Subs

Columbo.S09E01.720p.BluRay.x265-PROTON

Columbo.S09E02.720p.BluRay.x265-PROTON

Columbo.S09E03.720p.BluRay.x265-PROTON

Columbo.S09E04.720p.BluRay.x265-PROTON

Columbo.S09E05.720p.BluRay.x265-PROTON

Columbo.S09E06.720p.BluRay.x265-PROTON