PXT24

PXT24

For Your Eyes Only 1981 1080p BluRay DD+ 5.1 x265-edge2020
  • Category
    : Movies
  • Type
    : HEVC/x265
  • Language
    : English
  • Total size
    : 2.90 GB
  • Date uploaded
    : 05 Feb ,2024

Quote: Source - For.Your.Eyes.Only.1981.1080p.Blu-ray.Remux.AVC.DTS-HD.MA.5.1-KRaLiMaRKo
79ee33b9c52a 4884b82f6b6d 4f460fec9ebd 0d4c4096f1d1 3ead1825a2d0 08cddeac1065

General
Unique ID : 219135254603796544725234593978410889381 (0xA4DBEA35005C1A8DBC0786F5B3D470A5)
Complete name : For.Your.Eyes.Only.1981.1080p.BluRay.DDP.5.1.H.265-EDGE2020.mkv
Format : Matroska
Format version : Version 4
File size : 2.93 GiB
Duration : 2 h 7 min
Overall bit rate : 3 281 kb/s
Encoded date : UTC 2023-10-19 22:52:59
Writing application : mkvmerge v79.0 ('Funeral Pyres') 64-bit
Writing library : libebml v1.4.4 + libmatroska v1.7.1

Video
ID : 1
Format : HEVC
Format/Info : High Efficiency Video Coding
Format profile : Main 10@L4@Main
Codec ID : V_MPEGH/ISO/HEVC
Duration : 2 h 7 min
Bit rate : 2 632 kb/s
Width : 1 920 pixels
Height : 816 pixels
Display aspect ratio : 2.35:1
Frame rate mode : Constant
Frame rate : 23.976 (24000/1001) FPS
Color space : YUV
Chroma subsampling : 4:2:0
Bit depth : 10 bits
Bits/(Pixel*Frame) : 0.070
Stream size : 2.35 GiB (80%)
Writing library : x265 3.5+37+12-4e46995bc:[Windows][MSVC 1931][64 bit] 10bit
Encoding settings : cpuid=1111039 / frame-threads=4 / numa-pools=24 / wpp / no-pmode / no-pme / no-psnr / no-ssim / log-level=2 / input-csp=1 / input-res=1920x816 / interlace=0 / total-frames=184119 / level-idc=0 / high-tier=1 / uhd-bd=0 / ref=4 / no-allow-non-conformance / no-repeat-headers / annexb / no-aud / no-eob / no-eos / no-hrd / info / hash=0 / no-temporal-layers / open-gop / min-keyint=23 / keyint=250 / gop-lookahead=0 / bframes=4 / b-adapt=2 / b-pyramid / bframe-bias=0 / rc-lookahead=25 / lookahead-slices=4 / scenecut=40 / no-hist-scenecut / radl=0 / no-splice / no-intra-refresh / ctu=64 / min-cu-size=8 / rect / no-amp / max-tu-size=32 / tu-inter-depth=1 / tu-intra-depth=1 / limit-tu=0 / rdoq-level=2 / dynamic-rd=0.00 / no-ssim-rd / signhide / no-tskip / nr-intra=0 / nr-inter=0 / no-constrained-intra / strong-intra-smoothing / max-merge=3 / limit-refs=3 / limit-modes / me=3 / subme=3 / merange=57 / temporal-mvp / no-frame-dup / no-hme / weightp / no-weightb / no-analyze-src-pics / deblock=0:0 / sao / no-sao-non-deblock / rd=4 / selective-sao=4 / no-early-skip / rskip / no-fast-intra / no-tskip-fast / no-cu-lossless / no-b-intra / no-splitrd-skip / rdpenalty=0 / psy-rd=2.00 / psy-rdoq=1.00 / no-rd-refine / no-lossless / cbqpoffs=0 / crqpoffs=0 / rc=crf / crf=22.0 / qcomp=0.60 / qpstep=4 / stats-write=0 / stats-read=0 / ipratio=1.40 / pbratio=1.30 / aq-mode=2 / aq-strength=1.00 / aq-bias-strength=1.00 / cutree / zone-count=0 / no-strict-cbr / qg-size=32 / no-rc-grain / qpmax=69 / qpmin=0 / no-const-vbv / sar=0 / overscan=0 / videoformat=5 / range=0 / colorprim=1 / transfer=1 / colormatrix=1 / chromaloc=0 / display-window=0 / cll=0,0 / min-luma=0 / max-luma=1023 / log2-max-poc-lsb=8 / vui-timing-info / vui-hrd-info / slices=1 / no-opt-qp-pps / no-opt-ref-list-length-pps / no-multi-pass-opt-rps / scenecut-bias=0.05 / hist-threshold=0.03 / no-opt-cu-delta-qp / no-aq-motion / no-hdr10 / no-hdr10-opt / no-dhdr10-opt / no-idr-recovery-sei / analysis-reuse-level=0 / analysis-save-reuse-level=0 / analysis-load-reuse-level=0 / scale-factor=0 / refine-intra=0 / refine-inter=0 / refine-mv=1 / refine-ctu-distortion=0 / no-limit-sao / ctu-info=0 / no-lowpass-dct / refine-analysis-type=0 / copy-pic=1 / max-ausize-factor=1.0 / no-dynamic-refine / no-single-sei / no-hevc-aq / no-svt / no-field / qp-adaptation-range=1.00 / scenecut-aware-qp=0conformance-window-offsets / right=0 / bottom=0 / decoder-max-rate=0 / no-vbv-live-multi-pass
Default : Yes
Forced : No
Color range : Limited
Color primaries : BT.709
Transfer characteristics : BT.709
Matrix coefficients : BT.709

Audio
ID : 2
Format : E-AC-3
Format/Info : Enhanced AC-3
Commercial name : Dolby Digital Plus
Codec ID : A_EAC3
Duration : 2 h 7 min
Bit rate mode : Constant
Bit rate : 640 kb/s
Channel(s) : 6 channels
Channel layout : L R C LFE Ls Rs
Sampling rate : 48.0 kHz
Frame rate : 31.250 FPS (1536 SPF)
Compression mode : Lossy
Stream size : 586 MiB (20%)
Language : English
Service kind : Complete Main
Default : Yes
Forced : No

Text
ID : 3
Format : PGS
Muxing mode : zlib
Codec ID : S_HDMV/PGS
Codec ID/Info : Picture based subtitle format used on BDs/HD-DVDs
Duration : 2 h 7 min
Bit rate : 23.5 kb/s
Count of elements : 2424
Stream size : 21.4 MiB (1%)
Title : SHD
Language : English
Default : Yes
Forced : No

Menu
00:00:00.000 : en:Opening Sequence
00:06:38.565 : en:Sharp 'chuting
00:09:22.312 : en:Main Titles
00:13:56.669 : en:The Drax Estate
00:16:52.929 : en:Centrifugal Bond
00:19:04.685 : en:Dufour-Play
00:24:12.076 : en:Safecracking
00:28:31.919 : en:A Pheasant Pastime
00:33:46.858 : en:Dogged Determination
00:39:28.658 : en:Trailing Dr. Goodhead
00:43:02.163 : en:Going, Going, Gondola
00:47:05.322 : en:Toxic Encounters
00:51:58.157 : en:By Sword & Piano Chord
00:55:37.334 : en:Disarming Dr. Goodhead
00:58:33.719 : en:Revelry in Rio
01:00:35.882 : en:A Toothy Clown
01:04:41.628 : en:The Tram Ram
01:11:07.263 : en:Kidnapped
01:14:30.216 : en:Magnificent...Bond?
01:18:40.966 : en:What's Mines Is Yours
01:20:26.238 : en:Not Hanging Around
01:23:37.679 : en:Of Beauties & Boas
01:33:15.173 : en:Launching the Fleet
01:37:45.359 : en:Some Like It Hot
01:42:51.749 : en:Cockpit for Two
01:44:55.706 : en:Mett the Space Race
01:53:52.784 : en:In the City in Space
01:57:19.908 : en:Mutiny
02:00:20.338 : en:Battle in Space
02:01:12.348 : en:Launching Drax
02:03:19.976 : en:Globe Tracking
02:05:19.762 : en:End Credits