PXT24

PXT24

Futurama Season 1-11 Collection 1080p WEBDL
  • Category
    : TV
  • Type
    : HEVC/x265
  • Language
    : English
  • Total size
    : 46.00 GB
  • Date uploaded
    : 31 Mar ,2024

Futurama Season 1-11 Collection 1080p WEBDL

Info -
IMDB - https://www.imdb.com/title/tt0149460

Plot -
A young chef from the fine dining world returns to Chicago to run his family's sandwich shop.


Language :-
Season 1-11 - English

Number of Episodes :-
Season 1 - 9 Episodes
Season 2 - 20 Episodes
Season 3 - 15 Episodes
Season 4 - 12 Episodes
Season 5 - 16 Episodes
Season 6 - 16 Episodes
Season 7 - 13 Episodes
Season 8 - 13 Episodes
Season 9 - 13 Episodes
Season 10 - 13 Episodes
Season 11 - 10 Episodes

Screenshots :-
Screenshot-1
Screenshot-2
Screenshot-3

Sample File Info :

Quote:
Complete name            : Futurama S08E01.mkv
Format                   : Matroska
Format version           : Version 4
File size                : 355 MiB
Duration                 : 21 min 39 s
Overall bit rate         : 2 292 kb/s
Frame rate               : 23.976 FPS
Movie name               : Neutopia
Description              : The crew members encounter a bizarre alien with the power to change their sexual characteristics.
Writing application      : Lavf60.3.100
Writing library          : Lavf60.3.100
Cover                    : Yes
ErrorDetectionType       : Per level 1
Attachments              : cover.png
ARTIST                   : Billy West, Katey Sagal, John DiMaggio, Tress MacNeille, Maurice LaMarche
DATE                     : 2011
EPISODE_ID               : 1
SEASON_NUMBER            : 8
SHOW                     : Futurama

Video
ID                       : 1
Format                   : HEVC
Format/Info              : High Efficiency Video Coding
Format profile           : Main 10@L4@Main
Codec ID                 : V_MPEGH/ISO/HEVC
Duration                 : 21 min 39 s
Bit rate                 : 1 991 kb/s
Width                    : 1 920 pixels
Height                   : 1 080 pixels
Display aspect ratio     : 16:9
Frame rate mode          : Constant
Frame rate               : 23.976 (24000/1001) FPS
Color space              : YUV
Chroma subsampling       : 4:2:0
Bit depth                : 10 bits
Bits/(Pixel*Frame)       : 0.040
Stream size              : 308 MiB (87%)
Default                  : Yes
Forced                   : No
Color range              : Limited
VENDOR_ID                : [0][0][0][0]

Audio
ID                       : 2
Format                   : E-AC-3
Format/Info              : Enhanced AC-3
Commercial name          : Dolby Digital Plus
Codec ID                 : A_EAC3
Duration                 : 21 min 39 s
Bit rate mode            : Constant
Bit rate                 : 256 kb/s
Channel(s)               : 6 channels
Channel layout           : L R C LFE Ls Rs
Sampling rate            : 48.0 kHz
Frame rate               : 31.250 FPS (1536 SPF)
Bit depth                : 32 bits
Compression mode         : Lossy
Stream size              : 39.7 MiB (11%)
Title                    : English
Language                 : English
Service kind             : Complete Main
Default                  : Yes
Forced                   : No
VENDOR_ID                : [0][0][0][0]

Text
ID                       : 3
Format                   : UTF-8
Codec ID                 : S_TEXT/UTF8
Codec ID/Info            : UTF-8 Plain Text
Duration                 : 21 min 36 s
Title                    : English
Writing library          : Lavc60.3.100 srt
Language                 : English
Default                  : Yes
Forced                   : No

Futurama Season 1-11 Colection 1080p WEBDL

S11

S01

S02

S03

S04

S05

S06

S07

S08

S09