PXT24

PXT24

Ghosts (2019) Season 1-5 S01-S05 + Specials (1080p AMZN WEB-DL x265 HEVC 10bit EAC3 5.1 Ghost) [QxR]
  • Category
    : TV
  • Type
    : HEVC/x265
  • Language
    : English
  • Total size
    : 33.40 GB
  • Date uploaded
    : 01 Apr ,2024

Qx-R-Logo1

IMDb (8.4/10)

Genres
Comedy, Fantasy

Actors
Charlotte Ritchie, Kiell Smith-Bynoe, Lolly Adefope

Plot Summary
A group of spirits restlessly squabble in an abandoned country house. To their despair, a young couple inherits the house with hopeful plans to renovate it into a luxury hotel.

Note from Encoder
This pack contains all 5 seasons of BBC's "Ghosts", encoded from 1080p AMZN WEB-DLs. All Specials are available as well as all DVD extras.

1234567

Media Information
Code:
General

Format : Matroska
Format version : Version 4
File size : 864 MiB
Duration : 29 min 7 s
Overall bit rate : 4 144 kb/s
Frame rate : 25.000 FPS
Encoded date : 2023-11-07 03:09:14 UTC
Writing application : mkvmerge v79.0 ('Funeral Pyres') 64-bit
Writing library : libebml v1.4.4 + libmatroska v1.7.1

Video

Format : HEVC
Format/Info : High Efficiency Video Coding
Format profile : Main 10@L4@Main
Codec ID : V_MPEGH/ISO/HEVC
Duration : 29 min 7 s
Bit rate : 3 500 kb/s
Width : 1 920 pixels
Height : 1 080 pixels
Display aspect ratio : 16:9
Frame rate mode : Constant
Frame rate : 25.000 FPS
Color space : YUV
Chroma subsampling : 4:2:0
Bit depth : 10 bits
Bits/(Pixel*Frame) : 0.068
Stream size : 729 MiB (84%)
Writing library : x265 3.4+6-g73f96ff39:[Windows][GCC 11.0.0][64 bit] 10bit
Encoding settings : cpuid=1111039 / frame-threads=5 / numa-pools=32 / wpp / no-pmode / no-pme / no-psnr / no-ssim / log-level=2 / input-csp=1 / input-res=1920x1080 / interlace=0 / total-frames=43698 / level-idc=0 / high-tier=1 / uhd-bd=0 / ref=4 / no-allow-non-conformance / no-repeat-headers / annexb / no-aud / no-hrd / info / hash=0 / no-temporal-layers / open-gop / min-keyint=25 / keyint=250 / gop-lookahead=0 / bframes=8 / b-adapt=2 / b-pyramid / bframe-bias=0 / rc-lookahead=80 / lookahead-slices=0 / scenecut=40 / hist-scenecut=0 / radl=0 / no-splice / no-intra-refresh / ctu=64 / min-cu-size=8 / no-rect / no-amp / max-tu-size=32 / tu-inter-depth=1 / tu-intra-depth=1 / limit-tu=0 / rdoq-level=2 / dynamic-rd=0.00 / no-ssim-rd / signhide / no-tskip / nr-intra=0 / nr-inter=0 / no-constrained-intra / no-strong-intra-smoothing / max-merge=3 / limit-refs=3 / limit-modes / me=3 / subme=5 / merange=57 / temporal-mvp / no-frame-dup / no-hme / weightp / no-weightb / no-analyze-src-pics / deblock=-3:-3 / no-sao / no-sao-non-deblock / rd=4 / selective-sao=0 / no-early-skip / rskip / no-fast-intra / no-tskip-fast / no-cu-lossless / no-b-intra / no-splitrd-skip / rdpenalty=0 / psy-rd=2.00 / psy-rdoq=1.70 / no-rd-refine / no-lossless / cbqpoffs=0 / crqpoffs=0 / rc=abr / bitrate=3500 / qcomp=0.60 / qpstep=4 / stats-write=0 / stats-read=2 / cplxblur=20.0 / qblur=0.5 / ipratio=1.40 / pbratio=1.30 / aq-mode=3 / aq-strength=0.80 / cutree / zone-count=0 / no-strict-cbr / qg-size=32 / no-rc-grain / qpmax=69 / qpmin=0 / no-const-vbv / sar=0 / overscan=0 / videoformat=5 / range=0 / colorprim=2 / transfer=2 / colormatrix=2 / chromaloc=0 / display-window=0 / cll=0,0 / min-luma=0 / max-luma=1023 / log2-max-poc-lsb=8 / vui-timing-info / vui-hrd-info / slices=1 / no-opt-qp-pps / no-opt-ref-list-length-pps / no-multi-pass-opt-rps / scenecut-bias=0.05 / hist-threshold=0.01 / no-opt-cu-delta-qp / no-aq-motion / no-hdr10 / no-hdr10-opt / no-dhdr10-opt / no-idr-recovery-sei / analysis-reuse-level=0 / analysis-save-reuse-level=0 / analysis-load-reuse-level=0 / scale-factor=0 / refine-intra=0 / refine-inter=0 / refine-mv=1 / refine-ctu-distortion=0 / no-limit-sao / ctu-info=0 / no-lowpass-dct / refine-analysis-type=0 / copy-pic=1 / max-ausize-factor=1.0 / no-dynamic-refine / no-single-sei / no-hevc-aq / no-svt / no-field / qp-adaptation-range=1.00 / no-scenecut-aware-qpconformance-window-offsets / right=0 / bottom=0 / decoder-max-rate=0
Language : English (GB)
Default : No
Forced : No

Audio

Format : E-AC-3
Format/Info : Enhanced AC-3
Commercial name : Dolby Digital Plus
Codec ID : A_EAC3
Duration : 29 min 7 s
Bit rate mode : Constant
Bit rate : 640 kb/s
Channel(s) : 6 channels
Channel layout : L R C LFE Ls Rs
Sampling rate : 48.0 kHz
Frame rate : 31.250 FPS (1536 SPF)
Compression mode : Lossy
Stream size : 133 MiB (15%)
Title : Surround 5.1
Language : English (GB)
Service kind : Complete Main
Default : No
Forced : No

Subtitles

Format : VobSub
Muxing mode : zlib
Codec ID : S_VOBSUB
Codec ID/Info : Picture based subtitle format used on DVDs
Duration : 28 min 25 s
Bit rate : 7 236 b/s
Frame rate : 0.342 FPS
Count of elements : 584
Stream size : 1.47 MiB (0%)
Title : SDH
Language : English (GB)
Default : No
Forced : No

Chapters

00:00:00.000 : en-GB:Chapter 01
00:10:09.200 : en-GB:Chapter 02
00:20:34.440 : en-GB:Chapter 03


Source Information
Code: Ghosts.2019.S01.1080p.AMZN.WEB-DL.DDP5.1.H.264-Cinefeel (11.96 GB)
Internal AMZN WEB-DLs for S02 & S03 (Thank you to my anonymous ripper, without whom this pack wouldn't have been possible)
Ghosts.2019.S04.1080p.AMZN.WEB-DL.DDP5.1.H.264-NTb (11.82 GB)
Ghosts.2019.S05.1080p.AMZN.WEB-DL.DDP5.1.H.264-FLUX (11.90 GB)
Ghosts.S00E13.Its.Behind.You.1080p.AMZN.WEB-DL.DDP5.1.H.264-NTb (2.06 GB)
Internal AMZN WEB-DLs for the other specials (Again, thank you anonymous ripper)
Physical PAL DVDs and various YouTube rips for the extras (Thank you Amazon, HMV & yt-dlp)
Note From QxR:
Quote: Whilst we are happy for our releases to be re-posted on a platform we aren't on, please do so in an 'as-is' format. We ask that you do not create a new torrent, include all descriptions you see above including the QxR logo, tags, notes and screenshots. If you'd like to become a permanent poster on a website we don't post to, feel free to get in contact with a QxR member.

Ghosts (2019) Season 1-5 S01-S05 + Specials (1080p AMZN WEB-DL x265 HEVC 10bit EAC3 5.1 Ghost)

Featurettes

BBC Sounds - Inside Ghosts

Season 1

Season 2

Season 3

Season 4

Season 5

Specials