PXT24

PXT24

Godzilla.Minus.One.2023.1080p.10bit.DS4K.HDR.Blu-ray.Japanese.DDP7.1.MSubs.HEVC~NmCT
  • Category
    : Movies
  • Type
    : HEVC/x265
  • Language
    : Japanese
  • Total size
    : 6.40 GB
  • Date uploaded
    : 03 May ,2024

2E2WTX0TJEflAged6kzErwqX1kt

Godzilla.Minus.One.2023.1080p.10bit.DS4K.HDR.Blu-ray.Japanese.DDP7.1.MSubs.HEVC~NmCT

? Encoded Using CRF 10.5 From 4K Blu-ray REMUX ?


Media-Info:

General
Unique ID : 75504393226305887505217175703923712835 (0x38CD9DFFD19460A765DC80005FDBE343)
Complete name : Godzilla.Minus.One.2023.1080p.10bit.DS4K.HDR.Blu-ray.Japanese.DDP7.1.MSubs.HEVC~NmCT.mkv
Format : Matroska
Format version : Version 4
File size : 6.38 GiB
Duration : 2 h 4 min
Overall bit rate : 7 330 kb/s
Frame rate : 23.976 FPS
Movie name : Godzilla Minus One A.K.A Gojira -1.0 (2023) - NmCT
Encoded date : 2024-05-03 10:41:56 UTC
Writing application : mkvmerge v84.0 ('Sleeper') 64-bit
Writing library : libebml v1.4.5 + libmatroska v1.7.1
Cover : Yes
Attachments : Cover.jpg

Video
ID : 1
Format : HEVC
Format/Info : High Efficiency Video Coding
Format profile : Main 10@L4@Main
HDR format : SMPTE ST 2086, HDR10 compatible
Codec ID : V_MPEGH/ISO/HEVC
Duration : 2 h 4 min
Bit rate : 6 524 kb/s
Width : 1 920 pixels
Height : 804 pixels
Display aspect ratio : 2.39:1
Frame rate mode : Constant
Frame rate : 23.976 (24000/1001) FPS
Color space : YUV
Chroma subsampling : 4:2:0 (Type 2)
Bit depth : 10 bits
Bits/(Pixel*Frame) : 0.176
Stream size : 5.68 GiB (89%)
Title : 1080p / HDR / DS4K / Blu-ray / CRF10.5 / HEVC - NmCT
Default : Yes
Forced : No
Color range : Limited
Color primaries : BT.2020
Transfer characteristics : PQ
Matrix coefficients : BT.2020 non-constant
Mastering display color pri : BT.2020
Mastering display luminance : min: 0.0001 cd/m2, max: 1000 cd/m2
Maximum Content Light Level : 10000 cd/m2
Maximum Frame-Average Light : 1529 cd/m2

Audio
ID : 2
Format : E-AC-3
Format/Info : Enhanced AC-3
Commercial name : Dolby Digital Plus
Format settings : Dolby Surround EX
Codec ID : A_EAC3
Duration : 2 h 4 min
Bit rate mode : Constant
Bit rate : 768 kb/s
Channel(s) : 8 channels
Channel layout : L R C LFE Ls Rs Lb Rb
Sampling rate : 48.0 kHz
Frame rate : 31.250 FPS (1536 SPF)
Compression mode : Lossy
Stream size : 685 MiB (10%)
Title : DD+ 7.1 / 768Kbps / 48kHz - NmCT
Language : Japanese
Service kind : Complete Main
Default : Yes
Forced : No

Text #1
ID : 3
Format : VobSub
Muxing mode : zlib
Codec ID : S_VOBSUB
Codec ID/Info : Picture based subtitle format used on DVDs
Duration : 2 h 4 min
Bit rate : 48.4 kb/s
Frame rate : 1.083 FPS
Count of elements : 8090
Stream size : 43.1 MiB (1%)
Language : Japanese
Default : Yes
Forced : No

Text #2
ID : 4
Format : UTF-8
Codec ID : S_TEXT/UTF8
Codec ID/Info : UTF-8 Plain Text
Duration : 1 h 56 min
Bit rate : 34 b/s
Frame rate : 0.158 FPS
Count of elements : 1110
Stream size : 29.7 KiB (0%)
Language : English
Default : Yes
Forced : No

Menu
00:00:00.000 : en:Chapter 1
00:13:07.453 : en:Chapter 2
00:19:53.609 : en:Chapter 3
00:30:17.523 : en:Chapter 4
00:44:39.551 : en:Chapter 5
00:52:13.964 : en:Chapter 6
01:05:28.215 : en:Chapter 7
01:14:38.265 : en:Chapter 8
01:17:45.660 : en:Chapter 9
01:25:27.956 : en:Chapter 10
01:36:06.969 : en:Chapter 11
01:58:44.700 : en:Chapter 12



Screenshots:
mpv-shot0009
mpv-shot0002
mpv-shot0003
mpv-shot0004
mpv-shot0005
mpv-shot0006
mpv-shot0007
mpv-shot0008



Quote:
Source : Godzilla.Minus.One.2023.2160p.UHD.Blu-ray.Remux.HDR.HEVC.TrueHD.7.1.Atmos-HDC
Size : 58.6 GB


Use MPV-PC [recommended] For Smoother Playback Experience.

ENjOY THE QUALiTY