PXT24

PXT24

Goyo (2024) Triple Audio (Spanish+English+Hindi) 1080p HDR10 WEBDL [ProtonMovies]
  • Category
    : Movies
  • Type
    : HD
  • Language
    : English
  • Total size
    : 2.50 GB
  • Date uploaded
    : 08 Jul ,2024

Goyo (2024) Triple Audio (Spanish+English+Hindi) 1080p HDR10 WEBDL [ProtonMovies]

Proudly Provided by ProtonMovies

Info -
IMDB - imdb.com/title/tt32598483

Poster
Goyo-Poster-Proton-Movies


Plot -
A young autistic museum guide lives by a strict routine until he falls in love with his coworker and must confront a whirlwind of new, intense emotions.

ProtonMovies Profile --> 1337x.to/user/ProtonMovies

DON'T FORGET TO SEED!!! SEEDING ENABLES US TO PROVIDE QUALITY SHARES

Language :-
1. Spanish [Default]
2. English
3. Hindi


Screenshots :-
Screenshot-Proton-Movies-1
Screenshot-Proton-Movies-2
Screenshot-Proton-Movies-3
Screenshot-Proton-Movies-4


File Info :

Quote:

General
Complete name : Goyo (2024) Triple Audio (Spanish+English+Hindi) 1080p HDR10 WEBDL [ProtonMovies].mkv
Format : Matroska
Format version : Version 4
File size : 2.55 GiB
Duration : 1 h 47 min
Overall bit rate : 3 391 kb/s
Frame rate : 24.000 FPS
Movie name : Goyo (2024) Triple Audio (Spanish+English+Hindi) 1080p HDR10 WEBDL [ProtonMovies]
Description : A young autistic museum guide lives by a strict routine — until he falls in love with his coworker and must confront a whirlwind of new, intense emotions.
Encoded date : 2024-07-08 04:35:14 UTC
Writing application : mkvmerge v85.0 ('Shame For You') 64-bit
Writing library : libebml v1.4.5 + libmatroska v1.7.1 / Lavf60.3.100
Cover : Yes
Attachments : cover.png
DATE : 2024

Video
ID : 1
Format : HEVC
Format/Info : High Efficiency Video Coding
Format profile : Main 10@L4@Main
HDR format : SMPTE ST 2086, HDR10 compatible
Codec ID : V_MPEGH/ISO/HEVC
Duration : 1 h 47 min
Bit rate : 1 465 kb/s
Width : 1 920 pixels
Height : 1 080 pixels
Display aspect ratio : 16:9
Frame rate mode : Constant
Frame rate : 24.000 FPS
Color space : YUV
Chroma subsampling : 4:2:0 (Type 2)
Bit depth : 10 bits
Bits/(Pixel*Frame) : 0.029
Stream size : 1.10 GiB (43%)
Title : 265:fmt=265:moovts=-1:fps=24:deps:par=auto:hdr=none:[email protected]
Default : Yes
Forced : No
Color range : Limited
Color primaries : BT.2020
Transfer characteristics : PQ
Matrix coefficients : BT.2020 non-constant
Mastering display color primaries : Display P3
Mastering display luminance : min: 0.0001 cd/m2, max: 1000 cd/m2
Maximum Content Light Level : 818 cd/m2
Maximum Frame-Average Light Level : 182 cd/m2
VENDOR_ID : [0][0][0][0]

Audio #1
ID : 2
Format : E-AC-3
Format/Info : Enhanced AC-3
Commercial name : Dolby Digital Plus
Codec ID : A_EAC3
Duration : 1 h 47 min
Bit rate mode : Constant
Bit rate : 640 kb/s
Channel(s) : 6 channels
Channel layout : L R C LFE Ls Rs
Sampling rate : 48.0 kHz
Frame rate : 31.250 FPS (1536 SPF)
Bit depth : 32 bits
Compression mode : Lossy
Stream size : 492 MiB (19%)
Title : English
Language : English
Service kind : Complete Main
Default : No
Forced : No
VENDOR_ID : [0][0][0][0]
Dialog Normalization : -27 dB
compr : -0.28 dB
dialnorm_Average : -27 dB
dialnorm_Minimum : -27 dB
dialnorm_Maximum : -27 dB

Audio #2
ID : 3
Format : E-AC-3
Format/Info : Enhanced AC-3
Commercial name : Dolby Digital Plus
Codec ID : A_EAC3
Duration : 1 h 47 min
Bit rate mode : Constant
Bit rate : 640 kb/s
Channel(s) : 6 channels
Channel layout : L R C LFE Ls Rs
Sampling rate : 48.0 kHz
Frame rate : 31.250 FPS (1536 SPF)
Bit depth : 32 bits
Compression mode : Lossy
Stream size : 492 MiB (19%)
Title : Spanish (Latin America) [Original]
Language : Spanish
Service kind : Complete Main
Default : Yes
Forced : No
VENDOR_ID : [0][0][0][0]
Dialog Normalization : -27 dB
compr : -0.28 dB
dialnorm_Average : -27 dB
dialnorm_Minimum : -27 dB
dialnorm_Maximum : -27 dB

Audio #3
ID : 4
Format : E-AC-3
Format/Info : Enhanced AC-3
Commercial name : Dolby Digital Plus
Codec ID : A_EAC3
Duration : 1 h 47 min
Bit rate mode : Constant
Bit rate : 640 kb/s
Channel(s) : 6 channels
Channel layout : L R C LFE Ls Rs
Sampling rate : 48.0 kHz
Frame rate : 31.250 FPS (1536 SPF)
Bit depth : 32 bits
Compression mode : Lossy
Stream size : 492 MiB (19%)
Title : Hindi
Language : Hindi
Service kind : Complete Main
Default : No
Forced : No
VENDOR_ID : [0][0][0][0]
Dialog Normalization : -27 dB
compr : -0.28 dB
dialnorm_Average : -27 dB
dialnorm_Minimum : -27 dB
dialnorm_Maximum : -27 dB

Text #1
ID : 5
Format : UTF-8
Codec ID : S_TEXT/UTF8
Codec ID/Info : UTF-8 Plain Text
Duration : 1 h 26 min
Bit rate : 0 b/s
Frame rate : 0.002 FPS
Count of elements : 11
Stream size : 297 Bytes (0%)
Title : English [ForcedNarrative]
Writing library : Lavc60.3.100 srt
Language : English
Default : No
Forced : No

Text #2
ID : 6
Format : UTF-8
Codec ID : S_TEXT/UTF8
Codec ID/Info : UTF-8 Plain Text
Duration : 1 h 45 min
Bit rate : 76 b/s
Frame rate : 0.283 FPS
Count of elements : 1799
Stream size : 59.2 KiB (0%)
Title : English [CC]
Writing library : Lavc60.3.100 srt
Language : English
Default : No
Forced : No

Text #3
ID : 7
Format : UTF-8
Codec ID : S_TEXT/UTF8
Codec ID/Info : UTF-8 Plain Text
Duration : 1 h 40 min
Bit rate : 71 b/s
Frame rate : 0.263 FPS
Count of elements : 1589
Stream size : 53.1 KiB (0%)
Title : English
Writing library : Lavc60.3.100 srt
Language : English
Default : Yes
Forced : No

Text #4
ID : 8
Format : UTF-8
Codec ID : S_TEXT/UTF8
Codec ID/Info : UTF-8 Plain Text
Duration : 1 h 44 min
Bit rate : 56 b/s
Frame rate : 0.221 FPS
Count of elements : 1387
Stream size : 43.6 KiB (0%)
Title : English
Writing library : Lavc60.3.100 srt
Language : English
Default : Yes
Forced : No

Text #5
ID : 9
Format : UTF-8
Codec ID : S_TEXT/UTF8
Codec ID/Info : UTF-8 Plain Text
Duration : 1 h 29 min
Bit rate : 0 b/s
Frame rate : 0.002 FPS
Count of elements : 13
Stream size : 623 Bytes (0%)
Title : Hindi [ForcedNarrative]
Writing library : Lavc60.3.100 srt
Language : Hindi
Default : No
Forced : No





Goyo (2024) Triple Audio (Spanish+English+Hindi) 1080p HDR10 WEBDL [ProtonMovies]