PXT24

PXT24

Il regno del pianeta delle scimmie - Kingdom of the Planet of the Apes (2024) 1080p H265 WebDl Rip ita eng AC3 5.1 sub ita eng Licdom
  • Category
    : Movies
  • Type
    : HD
  • Language
    : Italian
  • Total size
    : 3.30 GB
  • Date uploaded
    : 10 Jul ,2024

licdom-release-500

il-regno-del-pianeta-delle-scimmie-1080p


scheda-film-75

Titolo originale: Kingdom of the Planet of the Apes
Paese di produzione: Stati Uniti
Genere: Fantascienza, Avventura, Azione
Anno: 2024
Durata: 2h 26m
Regia: Wes Ball


cast-75

Owen Teague: Noa
Freya Allan: Nova / Mae
Kevin Durand: Proximus Caesar
Peter Macon: Raka
William H. Macy: Trevathan
Eka Darville: Sylva
Travis Jeffery: Anaya
Lydia Peckham: Soona
Neil Sandilands: Koro
Ras-Samuel Welda'abzgi: Lightning


trama-75

Diverse generazioni nel futuro dopo il regno di Cesare, le scimmie sono ora la specie dominante che vive armoniosamente e gli umani sono stati ridotti a vivere nell'ombra. Mentre un nuovo tirannico capo scimmia costruisce il suo impero, una giovane scimmia intraprende un viaggio straziante che la porterà a mettere in discussione tutto ciò che ha conosciuto del passato e a fare delle scelte che definiranno un futuro sia per le scimmie che per gli umani.


trailer-75

https://www.youtube.com/watch?v=qmMD8vEa4E4


screenshots-75

e4f210b4b40a
581c7adec0e6
0629cee4ea6d
8142abccbfb0
13d836ead55d


media-info-75

General
Unique ID : 51051070288188270292634902444833314325 (0x2668141852173E9718D2F0475A211615)
Complete name : Il Regno del Pianeta delle Scimmie - Kingdom of the Planet of the Apes (2024) WebDl Rip 1080p H265 ita eng AC3 5.1 sub ita eng Licdom.mkv
Format : Matroska
Format version : Version 4
File size : 3.34 GiB
Duration : 2 h 26 min
Overall bit rate : 3 269 kb/s
Frame rate : 24.000 FPS
Movie name : Il Regno del Pianeta delle Scimmie - Kingdom of the Planet of the Apes (2024) WebDl Rip 1080p H265 ita eng AC3 5.1 sub ita eng Licdom
Encoded date : 2024-07-10 10:10:45 UTC
Writing application : mkvmerge v85.0 ('Shame For You') 64-bit
Writing library : libebml v1.4.5 + libmatroska v1.7.1 / Lavf61.3.104

Video
ID : 1
Format : HEVC
Format/Info : High Efficiency Video Coding
Format profile : Main@L4@Main
HDR format : SMPTE ST 2086, HDR10 compatible
Codec ID : V_MPEGH/ISO/HEVC
Duration : 2 h 24 min
Bit rate : 2 014 kb/s
Width : 1 920 pixels
Height : 800 pixels
Display aspect ratio : 2.40:1
Frame rate mode : Constant
Frame rate : 24.000 FPS
Color space : YUV
Chroma subsampling : 4:2:0 (Type 2)
Bit depth : 8 bits
Bits/(Pixel*Frame) : 0.055
Stream size : 2.04 GiB (61%)
Title : Video 1080p
Writing library : x265 3.6+28-8f16d2257:[Windows][GCC 14.1.0][64 bit] 8bit+10bit+12bit
Encoding settings : cpuid=1111039 / frame-threads=5 / numa-pools=32 / wpp / no-pmode / no-pme / no-psnr / no-ssim / log-level=2 / input-csp=1 / input-res=1920x800 / interlace=0 / total-frames=0 / level-idc=0 / high-tier=1 / uhd-bd=0 / ref=3 / no-allow-non-conformance / repeat-headers / annexb / no-aud / no-eob / no-eos / no-hrd / info / hash=0 / temporal-layers=0 / open-gop / min-keyint=24 / keyint=250 / gop-lookahead=0 / bframes=4 / b-adapt=2 / b-pyramid / bframe-bias=0 / rc-lookahead=20 / lookahead-slices=5 / scenecut=40 / no-hist-scenecut / radl=0 / no-splice / no-intra-refresh / ctu=64 / min-cu-size=8 / no-rect / no-amp / max-tu-size=32 / tu-inter-depth=1 / tu-intra-depth=1 / limit-tu=0 / rdoq-level=0 / dynamic-rd=0.00 / no-ssim-rd / signhide / no-tskip / nr-intra=0 / nr-inter=0 / no-constrained-intra / strong-intra-smoothing / max-merge=3 / limit-refs=1 / no-limit-modes / me=1 / subme=2 / merange=57 / temporal-mvp / no-frame-dup / no-hme / weightp / no-weightb / no-analyze-src-pics / deblock=0:0 / sao / no-sao-non-deblock / rd=3 / selective-sao=4 / early-skip / rskip / no-fast-intra / no-tskip-fast / no-cu-lossless / b-intra / no-splitrd-skip / rdpenalty=0 / psy-rd=2.00 / psy-rdoq=0.00 / no-rd-refine / no-lossless / cbqpoffs=0 / crqpoffs=0 / rc=crf / crf=20.0 / qcomp=0.60 / qpstep=4 / stats-write=0 / stats-read=0 / ipratio=1.40 / pbratio=1.30 / aq-mode=3 / aq-strength=0.50 / cutree / zone-count=0 / no-strict-cbr / qg-size=32 / no-rc-grain / qpmax=69 / qpmin=0 / no-const-vbv / sar=1 / overscan=0 / videoformat=5 / range=0 / colorprim=1 / transfer=1 / colormatrix=1 / chromaloc=1 / chromaloc-top=2 / chromaloc-bottom=2 / display-window=0 / master-display=G(8500,39850)B(6550,2300)R(35400,14600)WP(15635,16450)L(9880000,50) / cll=988,382 / min-luma=0 / max-luma=255 / log2-max-poc-lsb=8 / vui-timing-info / vui-hrd-info / slices=1 / no-opt-qp-pps / no-opt-ref-list-length-pps / no-multi-pass-opt-rps / scenecut-bias=0.05 / no-opt-cu-delta-qp / no-aq-motion / hdr10 / no-hdr10-opt / no-dhdr10-opt / no-idr-recovery-sei / analysis-reuse-level=0 / analysis-save-reuse-level=0 / analysis-load-reuse-level=0 / scale-factor=0 / refine-intra=0 / refine-inter=0 / refine-mv=1 / refine-ctu-distortion=0 / no-limit-sao / ctu-info=0 / no-lowpass-dct / refine-analysis-type=0 / copy-pic=1 / max-ausize-factor=1.0 / no-dynamic-refine / no-single-sei / no-hevc-aq / no-svt / no-field / qp-adaptation-range=1.00 / scenecut-aware-qp=0conformance-window-offsets / right=0 / bottom=0 / decoder-max-rate=0 / no-vbv-live-multi-pass / no-mcstf / no-sbrc
Language : Italian
Default : Yes
Forced : No
Color range : Limited
Color primaries : BT.709
Transfer characteristics : BT.709
Matrix coefficients : BT.709
Mastering display color primaries : BT.2020
Mastering display luminance : min: 0.0050 cd/m2, max: 988 cd/m2
Maximum Content Light Level : 988
MaxCLL_Original : 988 cd/m2
Maximum Frame-Average Light Level : 382
MaxFALL_Original : 382 cd/m2

Audio #1
ID : 2
Format : AC-3
Format/Info : Audio Coding 3
Commercial name : Dolby Digital
Codec ID : A_AC3
Duration : 2 h 26 min
Bit rate mode : Constant
Bit rate : 640 kb/s
Channel(s) : 6 channels
Channel layout : L R C LFE Ls Rs
Sampling rate : 48.0 kHz
Frame rate : 31.250 FPS (1536 SPF)
Compression mode : Lossy
Stream size : 669 MiB (20%)
Title : Italiano Ac-3 5.1
Language : Italian
Service kind : Complete Main
Default : Yes
Forced : No

Audio #2
ID : 3
Format : AC-3
Format/Info : Audio Coding 3
Commercial name : Dolby Digital
Codec ID : A_AC3
Duration : 2 h 24 min
Bit rate mode : Constant
Bit rate : 640 kb/s
Channel(s) : 6 channels
Channel layout : L R C LFE Ls Rs
Sampling rate : 48.0 kHz
Frame rate : 31.250 FPS (1536 SPF)
Compression mode : Lossy
Stream size : 662 MiB (19%)
Title : English AC-3 5.1
Language : English
Service kind : Complete Main
Default : No
Forced : No

Text #1
ID : 4
Format : UTF-8
Codec ID : S_TEXT/UTF8
Codec ID/Info : UTF-8 Plain Text
Duration : 2 h 15 min
Bit rate : 1 b/s
Frame rate : 0.004 FPS
Count of elements : 29
Stream size : 1.57 KiB (0%)
Title : Italiano Forced
Language : Italian
Default : Yes
Forced : Yes

Text #2
ID : 5
Format : UTF-8
Codec ID : S_TEXT/UTF8
Codec ID/Info : UTF-8 Plain Text
Duration : 2 h 9 min
Bit rate : 0 b/s
Frame rate : 0.002 FPS
Count of elements : 12
Stream size : 526 Bytes (0%)
Title : English Forced
Language : English
Default : No
Forced : No

Text #3
ID : 6
Format : UTF-8
Codec ID : S_TEXT/UTF8
Codec ID/Info : UTF-8 Plain Text
Duration : 2 h 24 min
Bit rate : 18 b/s
Frame rate : 0.109 FPS
Count of elements : 947
Stream size : 19.3 KiB (0%)
Title : Italiano
Language : Italian
Default : No
Forced : No

Text #4
ID : 7
Format : UTF-8
Codec ID : S_TEXT/UTF8
Codec ID/Info : UTF-8 Plain Text
Duration : 2 h 11 min
Bit rate : 17 b/s
Frame rate : 0.118 FPS
Count of elements : 932
Stream size : 17.0 KiB (0%)
Title : English
Language : English
Default : No
Forced : No