PXT24

PXT24

Jigokuraku | Hell's Paradise : Season 01 S01 [2023] COMPLETE 1080p BDRip x265 PCM 2.0 Kira [SEV]
  • Category
    : Anime
  • Type
    : Subbed
  • Language
    : Japanese
  • Total size
    : 33.30 GB
  • Date uploaded
    : 06 Feb ,2024

SEV-logo

Source vs Encode :- Link

Screenshot's
dlQm3QFD_t uGbicDrH_t 3sk6MFj9_t licWaPiE_t GCjE8t06_t BMD05W4u_t GVwUvSkK_t Xi8FQoaa_t P5WVWOwO_t qpS4LfsH_t


Media Information
Code: General
Unique ID                   : 262228349424298695396914324205464491592 (0xC54757D19F98C6E2B3E2E03A81509648)
Complete name               : Hell's Paradise - Episode 01 - The Death Row Convict and the Executioner 1080p BDRip x265 PCM 2.0 Kira [SEV].mkv
Format                      : Matroska
Format version              : Version 4
File size                   : 2.23 GiB
Duration                    : 24 min 11 s
Overall bit rate            : 13.2 Mb/s
Frame rate                  : 23.976 FPS
Movie name                  : | 地獄楽 (Jigokuraku) / Hell's Paradise : Episode 01 : 死罪人と執行人 (Shizaijin to Shikkōnin) / The Death Row Convict and the Executioner | 1080p | BDRip | x265 | PCM 2.0 @ 2304 Kbps | Kira [SEV] |
Encoded date                : 2024-02-02 10:54:23 UTC
Writing application         : mkvmerge v82.0 ('I'm The President') 64-bit
Writing library             : libebml v1.4.5 + libmatroska v1.7.1
Attachments                 : BrushStrokes.ttf / GandhiSans-Bold.otf / GandhiSans-BoldItalic.otf / Gupter-Medium.ttf / Philosopher-Regular.ttf / Andine.otf / AveriaLibre-Regular.ttf

Video
ID                          : 1
Format                      : HEVC
Format/Info                 : High Efficiency Video Coding
Format profile              : Main 10@L4@Main
Codec ID                    : V_MPEGH/ISO/HEVC
Duration                    : 24 min 11 s
Bit rate                    : 8 291 kb/s
Width                       : 1 920 pixels
Height                      : 1 080 pixels
Display aspect ratio        : 16:9
Frame rate mode             : Constant
Frame rate                  : 23.976 (24000/1001) FPS
Color space                 : YUV
Chroma subsampling          : 4:2:0
Bit depth                   : 10 bits
Bits/(Pixel*Frame)          : 0.167
Stream size                 : 1.40 GiB (63%)
Title                       : | 地獄楽 (Jigokuraku) / Hell's Paradise : Episode 01 : 死罪人と執行人 (Shizaijin to Shikkōnin) / The Death Row Convict and the Executioner | 1080p | BDRip | x265 | PCM 2.0 @ 2304 Kbps | Kira [SEV] |
Writing library             : x265 3.5+112-ce8642f22:[Windows][MSVC 1938][64 bit] 10bit
Encoding settings           : cpuid=1111039 / frame-threads=5 / numa-pools=32 / wpp / no-pmode / no-pme / no-psnr / no-ssim / log-level=2 / input-csp=1 / input-res=1920x1080 / interlace=0 / total-frames=17395 / level-idc=0 / high-tier=1 / uhd-bd=0 / ref=5 / no-allow-non-conformance / no-repeat-headers / annexb / no-aud / no-eob / no-eos / no-hrd / info / hash=0 / temporal-layers=0 / open-gop / min-keyint=23 / keyint=250 / gop-lookahead=0 / bframes=16 / b-adapt=2 / b-pyramid / bframe-bias=0 / rc-lookahead=100 / lookahead-slices=0 / scenecut=40 / no-hist-scenecut / radl=0 / no-splice / no-intra-refresh / ctu=64 / min-cu-size=8 / no-rect / no-amp / max-tu-size=32 / tu-inter-depth=4 / tu-intra-depth=4 / limit-tu=4 / rdoq-level=2 / dynamic-rd=0.00 / no-ssim-rd / signhide / no-tskip / nr-intra=0 / nr-inter=0 / no-constrained-intra / no-strong-intra-smoothing / max-merge=5 / limit-refs=0 / limit-modes / me=3 / subme=7 / merange=92 / temporal-mvp / no-frame-dup / no-hme / weightp / weightb / no-analyze-src-pics / deblock=-3:-3 / no-sao / no-sao-non-deblock / rd=4 / selective-sao=0 / no-early-skip / rskip / no-fast-intra / no-tskip-fast / no-cu-lossless / b-intra / no-splitrd-skip / rdpenalty=0 / psy-rd=1.50 / psy-rdoq=1.00 / no-rd-refine / no-lossless / cbqpoffs=0 / crqpoffs=0 / rc=crf / crf=15.0 / qcomp=0.60 / qpstep=4 / stats-write=0 / stats-read=0 / ipratio=1.40 / pbratio=1.30 / aq-mode=3 / aq-strength=1.00 / cutree / zone-count=0 / no-strict-cbr / qg-size=32 / no-rc-grain / qpmax=69 / qpmin=0 / no-const-vbv / sar=0 / overscan=0 / videoformat=5 / range=0 / colorprim=2 / transfer=2 / colormatrix=2 / chromaloc=0 / display-window=0 / cll=0,0 / min-luma=0 / max-luma=1023 / log2-max-poc-lsb=8 / vui-timing-info / vui-hrd-info / slices=1 / no-opt-qp-pps / no-opt-ref-list-length-pps / no-multi-pass-opt-rps / scenecut-bias=0.05 / no-opt-cu-delta-qp / no-aq-motion / no-hdr10 / no-hdr10-opt / no-dhdr10-opt / no-idr-recovery-sei / analysis-reuse-level=0 / analysis-save-reuse-level=0 / analysis-load-reuse-level=0 / scale-factor=0 / refine-intra=0 / refine-inter=0 / refine-mv=1 / refine-ctu-distortion=0 / no-limit-sao / ctu-info=0 / no-lowpass-dct / refine-analysis-type=0 / copy-pic=1 / max-ausize-factor=1.0 / no-dynamic-refine / no-single-sei / no-hevc-aq / no-svt / no-field / qp-adaptation-range=1.00 / scenecut-aware-qp=0conformance-window-offsets / right=0 / bottom=0 / decoder-max-rate=0 / no-vbv-live-multi-pass / no-mcstf / no-sbrc
Language                    : Japanese
Default                     : Yes
Forced                      : No

Audio #1
ID                          : 2
ID in the original source m : 4352 (0x1100)
Format                      : PCM
Format settings             : Little / Signed
Codec ID                    : A_PCM/INT/LIT
Duration                    : 24 min 11 s
Bit rate mode               : Constant
Bit rate                    : 2 304 kb/s
Channel(s)                  : 2 channels
Sampling rate               : 48.0 kHz
Frame rate                  : 30.000 FPS (1600 SPF)
Bit depth                   : 24 bits
Stream size                 : 399 MiB (17%)
Title                       : Japanese BD PCM 2.0 @ 2304 Kbps
Language                    : Japanese
Default                     : Yes
Forced                      : No
Original source medium      : Blu-ray

Audio #2
ID                          : 3
ID in the original source m : 4352 (0x1100)
Format                      : PCM
Format settings             : Little / Signed
Codec ID                    : A_PCM/INT/LIT
Duration                    : 24 min 11 s
Bit rate mode               : Constant
Bit rate                    : 2 304 kb/s
Channel(s)                  : 2 channels
Sampling rate               : 48.0 kHz
Frame rate                  : 30.001 FPS (1600 SPF)
Bit depth                   : 24 bits
Stream size                 : 399 MiB (17%)
Title                       : Commentary with Chiaki Kobayashi and Yumiri Hanamori
Language                    : Japanese
Default                     : No
Forced                      : No
Original source medium      : Blu-ray

Audio #3
ID                          : 4
Format                      : AAC LC
Format/Info                 : Advanced Audio Codec Low Complexity
Codec ID                    : A_AAC-2
Duration                    : 24 min 10 s
Bit rate                    : 128 kb/s
Channel(s)                  : 2 channels
Channel layout              : L R
Sampling rate               : 44.1 kHz
Frame rate                  : 43.066 FPS (1024 SPF)
Compression mode            : Lossy
Stream size                 : 22.1 MiB (1%)
Title                       : English AAC 2.0
Language                    : English
Default                     : No
Forced                      : No

Text #1
ID                          : 5
Format                      : ASS
Codec ID                    : S_TEXT/ASS
Codec ID/Info               : Advanced Sub Station Alpha
Duration                    : 24 min 9 s
Bit rate                    : 75.7 kb/s
Frame rate                  : 10.095 FPS
Count of elements           : 14631
Compression mode            : Lossless
Stream size                 : 13.1 MiB (1%)
Title                       : [Nirvana] English (Full) ASS
Language                    : English
Default                     : Yes
Forced                      : No

Text #2
ID                          : 6
Format                      : ASS
Codec ID                    : S_TEXT/ASS
Codec ID/Info               : Advanced Sub Station Alpha
Duration                    : 24 min 9 s
Bit rate                    : 75.6 kb/s
Frame rate                  : 9.872 FPS
Count of elements           : 14309
Compression mode            : Lossless
Stream size                 : 13.1 MiB (1%)
Title                       : [Nirvana] English (Signs/Songs) ASS
Language                    : English
Default                     : No
Forced                      : No

Menu
00:00:00.000                : ja:Chapter 01
00:01:26.002                : ja:Chapter 02
00:02:56.050                : ja:Chapter 03
00:11:42.076                : ja:Chapter 04
00:22:40.067                : ja:Chapter 05


Source Information
[Jigokuraku][地獄楽][BDMV][BD-BOX][WITSTUDIO@Skyey Snow] (82.712 GB) (Thanks!)
Nirvana Subs (Thanks!)
Code: General
Unique ID                   : 282909698995850905109285111243904295138 (0xD4D66D13EE44A153B14F0AB78196A0E2)
Complete name               : 地獄楽Vol.1 REMUX.mkv
Format                      : Matroska
Format version              : Version 2
File size                   : 7.63 GiB
Duration                    : 48 min 22 s
Overall bit rate mode       : Variable
Overall bit rate            : 22.6 Mb/s
Frame rate                  : 23.976 FPS
Encoded date                : 2024-01-31 03:44:47 UTC
Writing application         : MakeMKV v1.17.3 win(x64-release)
Writing library             : libmakemkv v1.17.3 (1.3.10/1.5.2) win(x64-release)

Video
ID                          : 1
ID in the original source m : 4113 (0x1011)
Format                      : AVC
Format/Info                 : Advanced Video Codec
Format profile              : [email protected]
Format settings             : CABAC / 4 Ref Frames
Format settings, CABAC      : Yes
Format settings, Reference  : 4 frames
Codec ID                    : V_MPEG4/ISO/AVC
Duration                    : 48 min 22 s
Bit rate mode               : Variable
Bit rate                    : 20.3 Mb/s
Maximum bit rate            : 37.0 Mb/s
Width                       : 1 920 pixels
Height                      : 1 080 pixels
Display aspect ratio        : 16:9
Frame rate mode             : Constant
Frame rate                  : 23.976 (24000/1001) FPS
Color space                 : YUV
Chroma subsampling          : 4:2:0
Bit depth                   : 8 bits
Scan type                   : Progressive
Bits/(Pixel*Frame)          : 0.408
Time code of first frame    : 01:00:00:00
Stream size                 : 6.85 GiB (90%)
Language                    : English
Default                     : No
Forced                      : No
Original source medium      : Blu-ray

Audio
ID                          : 2
ID in the original source m : 4352 (0x1100)
Format                      : PCM
Format settings             : Little / Signed
Codec ID                    : A_PCM/INT/LIT
Duration                    : 48 min 22 s
Bit rate mode               : Constant
Bit rate                    : 2 304 kb/s
Channel(s)                  : 2 channels
Sampling rate               : 48.0 kHz
Frame rate                  : 30.000 FPS (1600 SPF)
Bit depth                   : 24 bits
Stream size                 : 797 MiB (10%)
Title                       : Stereo
Language                    : Japanese
Default                     : Yes
Forced                      : No
Original source medium      : Blu-ray

Menu
00:00:00.000                : en:Chapter 01
00:01:26.002                : en:Chapter 02
00:02:56.050                : en:Chapter 03
00:11:42.076                : en:Chapter 04
00:22:40.067                : en:Chapter 05
00:24:11.032                : en:Chapter 06
00:27:12.005                : en:Chapter 07
00:28:42.053                : en:Chapter 08
00:35:51.065                : en:Chapter 09
00:46:51.058                : en:Chapter 10


We have no issue with individuals posting or re-uploading our torrents on a platform we aren't on. However, if this is something you'd like to do, please do so in a 'as-is' format. We ask that you do not create a new torrent, include all descriptions you see above including the SEV logo, tags, notes and screenshots. If you'd like to become a permanent poster on a website we don't post to, feel free to get in contact with a Sublime Encoded Video member.

We are recruiting/training new members for SEV & seedbox providers as well as people to help out with subtitles.
As you already know, we deliver quality, so you know the standard.
If you're interested, feel free to contact any of the team members.


Hell's Paradise - Season 01 [2023] COMPLETE 1080p BDRip x265 PCM 2.0 Kira [SEV]

Extras

Creditless OPs & EDs

Hell's Paradise - Bonus CD

PVs