PXT24

PXT24

Kingdom of the Planet of the Apes - Il Regno Del Pianeta delle Scimmie (2024) 720p h264 Ac3 5.1 Ita Eng Sub Ita Eng-MIRCrew
  • Category
    : Movies
  • Type
    : HD
  • Language
    : English
  • Total size
    : 2.90 GB
  • Date uploaded
    : 10 Jul ,2024

Kingdom of the Planet of the Apes - Il Regno Del Pianeta delle Scimmie (2024) 720p h264 Ac3 5.1 Ita Eng Sub Ita Eng-MIRCrew

banner-MIRCrew-aprile-22-trasp


NO FOUND ONLY ORIGINAL RELEASE

My release is always in double track audio italian and Original audio
for select it use VLC or dvd player home
not use wmp

Il Regno Del Pianeta delle Scimmie - Kingdom of the Planet of the Apes (2024)


Quality MIRCrew in HD 720p da 2,85 gb

ZeQgLyR

youtube_logo imdb_new



fGu1rKv

Titolo originale Kingdom of the Planet of the Apes
Lingua originale inglese
Paese di produzione Stati Uniti d'America
Anno 2024
Durata 145 min
Rapporto 2,39:1
Genere azione, fantascienza, avventura
Regia Wes Ball
Soggetto personaggi creati da Rick Jaffa e Amanda Silver
dalla premessa suggerita del romanzo Il pianeta delle scimmie di Pierre Boulle
storia di Patrick Aison, Josh Friedman, Rick Jaffa e Amanda Silver
Sceneggiatura Josh Friedman
Fotografia Gyula Pados
Montaggio Dan Zimmerman
Effetti speciali Erik Winquist
Musiche John Paesano
Scenografia Daniel T. Dorrance

W7kBqiE



Owen Teague: Noa
Freya Allan: Mae / Nova
Kevin Durand: Proximus Cesare
Lydia Peckham: Soona
Peter Macon: Raka
Travis Jeffery: Anaya
William H. Macy: Trevathan
Neil Sandilands: Koro
Eka Darville: Sylva
Ras-Samuel Weld A'abzgi: Fulmine
Sara Wiseman: Dar
Dichen Lachman: Korina
Gregor Jordan: guardia di Proximus
Karin Konoval: Maurice



bFK3ggF

Alla morte di Cesare, i suoi compagni lo celebrano e piangono con un funerale solenne presieduto dal suo grande amico Maurice. Diverse generazioni dopo, il mondo è dominato dalle scimmie e gli umani sono ormai regrediti a uno stadio animale a causa degli effetti del virus ALZ-113 mutato circa trecento anni prima.

48xHWWH

The new Apes movie is set many years after the conclusion of 2017's War for the Planet of the Apes. Many apes societies have grown from when the Moses-like Caesar brought his people to an oasis, while humans have been reduced to a feral-like existence. Some ape groups have never heard of Caesar, while others have contorted his teaching to build burgeoning empires.


woIf0vYCCrPvDggfd7hKmQVbOpm6ZoMVRjHTPXTGm5



aVrMohH

[spoiler]

General

Complete name : Il Regno Del Pianeta delle Scimmie - Kingdom of the Planet of the Apes (2024) 720p h264 Ac3 5.1 Ita Eng Sub Ita Eng-MIRCrew.mkv
Format : Matroska
Format version : Version 2
File size : 2.85 GiB
Duration : 2h 26mn
Overall bit rate : 2 792 Kbps
Movie name : MIRCrew
Encoded date : UTC 2024-07-10T11:00:09Z
Writing application : mkvmerge v5.8.0 ('No Sleep / Pillow') built on Sep 2 2012 15:37:04
Writing library : Lavf55.12.0

Video
ID : 1
Format : AVC
Format/Info : Advanced Video Codec
Format profile : [email protected]
Format settings, CABAC : Yes
Format settings, ReFrames : 4 frames
Codec ID : V_MPEG4/ISO/AVC
Duration : 2h 26mn
Bit rate : 2 000 Kbps
Width : 1 280 pixels
Height : 528 pixels
Display aspect ratio : 2.40:1
Frame rate : 24.000 fps
Color space : YUV
Chroma subsampling : 4:2:0
Bit depth : 8 bits
Scan type : Progressive
Bits/(Pixel*Frame) : 0.123
Stream size : 1.94 GiB (68%)
Title : MIRCrew
Writing library : x264 core 142 r2479 dd79a61
Encoding settings : cabac=1 / ref=1 / deblock=1:0:0
Language : Italian
Default : Yes
Forced : No
Color primaries : BT.709-5, BT.1361, IEC 61966-2-4, SMPTE RP177
Transfer characteristics : BT.709-5, BT.1361
Matrix coefficients : BT.709-5, BT.1361, IEC 61966-2-4 709, SMPTE RP177

Audio #1
ID : 2
Format : AC-3
Format/Info : Audio Coding 3
Mode extension : CM (complete main)
Codec ID : A_AC3
Duration : 2h 26mn
Bit rate mode : Constant
Bit rate : 448 Kbps
Channel(s) : 6 channels
Channel positions : Front: L C R, Side: L R, LFE
Sampling rate : 48.0 KHz
Bit depth : 16 bits
Compression mode : Lossy
Delay relative to video : -5ms
Stream size : 468 MiB (16%)
Title : Ita Ac3 5.1
Language : Italian
Default : Yes
Forced : No

Audio #2
ID : 3
Format : AC-3
Format/Info : Audio Coding 3
Mode extension : CM (complete main)
Codec ID : A_AC3
Duration : 2h 26mn
Bit rate mode : Constant
Bit rate : 384 Kbps
Channel(s) : 6 channels
Channel positions : Front: L C R, Side: L R, LFE
Sampling rate : 48.0 KHz
Bit depth : 16 bits
Compression mode : Lossy
Delay relative to video : -5ms
Stream size : 401 MiB (14%)
Title : Eng Ac3 5.1
Language : English
Default : No
Forced : No

Text #1
ID : 4
Format : ASS
Codec ID : S_TEXT/ASS
Codec ID/Info : Advanced Sub Station Alpha
Compression mode : Lossless
Title : Forced ita
Language : Italian
Default : Yes
Forced : Yes

Text #2
ID : 5
Format : ASS
Codec ID : S_TEXT/ASS
Codec ID/Info : Advanced Sub Station Alpha
Compression mode : Lossless
Title : Ita
Language : Italian
Default : No
Forced : No

Text #3
ID : 6
Format : ASS
Codec ID : S_TEXT/ASS
Codec ID/Info : Advanced Sub Station Alpha
Compression mode : Lossless
Title : Forced Eng
Language : English
Default : No
Forced : No

Text #4
ID : 7
Format : ASS
Codec ID : S_TEXT/ASS
Codec ID/Info : Advanced Sub Station Alpha
Compression mode : Lossless
Title : Eng
Language : English
Default : No
Forced : No

Text #5
ID : 8
Format : ASS
Codec ID : S_TEXT/ASS
Codec ID/Info : Advanced Sub Station Alpha
Compression mode : Lossless
Title : Eng
Language : English
Default : No
Forced : No




[/spoiler]

lvhU6

cWb6Z

nU43TBc