PXT24

PXT24

Land Of Bad 2024 1080p BluRay DDP5 1 x264-NORAA
  • Category
    : Movies
  • Type
    : h.264/x264
  • Language
    : English
  • Total size
    : 18.50 GB
  • Date uploaded
    : 10 Jul ,2024



Land Of Bad 2024 1080p BluRay DDP5 1 x264-NORAA

image

Format : Matroska
Format version : Version 4
File size : 18.5 GiB
Duration : 1 h 53 min
Overall bit rate : 23.3 Mb/s
Frame rate : 23.976 FPS
Encoded date : 2024-07-09 07:14:51 UTC
Writing application : mkvmerge v85.0 ('Shame For You') 64-bit
Writing library : libebml v1.4.5 + libmatroska v1.7.1

Video
ID : 1
Format : AVC
Format/Info : Advanced Video Codec
Format profile : [email protected]
Format settings : CABAC / 5 Ref Frames
Format settings, CABAC : Yes
Format settings, Reference frames : 5 frames
Codec ID : V_MPEG4/ISO/AVC
Duration : 1 h 53 min
Bit rate : 21.8 Mb/s
Width : 1 920 pixels
Height : 804 pixels
Display aspect ratio : 2.39:1
Frame rate mode : Constant
Frame rate : 23.976 (24000/1001) FPS
Color space : YUV
Chroma subsampling : 4:2:0
Bit depth : 8 bits
Scan type : Progressive
Bits/(Pixel*Frame) : 0.588
Stream size : 17.3 GiB (94%)

Audio
ID : 2
Format : E-AC-3
Format/Info : Enhanced AC-3
Commercial name : Dolby Digital Plus
Codec ID : A_EAC3
Duration : 1 h 53 min
Bit rate mode : Constant
Bit rate : 1 024 kb/s
Channel(s) : 6 channels
Channel layout : L R C LFE Ls Rs
Sampling rate : 48.0 kHz
Frame rate : 31.250 FPS (1536 SPF)
Compression mode : Lossy
Stream size : 832 MiB (4%)
Language : English
Service kind : Complete Main
Default : Yes
Forced : No

Text #1
ID : 3
Format : UTF-8
Codec ID : S_TEXT/UTF8
Codec ID/Info : UTF-8 Plain Text
Language : English
Default : Yes
Forced : No

Screens:

frame15-23.th frame13-42.th frame10-65.th frame8-99.th frame5---2024-07-10T140514.572.th frame2---2024-07-10T140512.945.th frame0---2024-07-10T140511.130.th

Land Of Bad 2024 1080p BluRay DDP5 1 x264-NORAA

Land.Of.Bad.2024.1080p.BluRay.DDP5.1.x264-NORAA