PXT24

PXT24

Leave the World Behind (2023) (1080p NF WEB-DL x265 HEVC 10bit EAC3 Atmos 5.1 Ghost) [QxR]
  • Category
    : Movies
  • Type
    : HEVC/x265
  • Language
    : English
  • Total size
    : 5.00 GB
  • Date uploaded
    : 08 Jul ,2024

Qx-R-Logo1

IMDb (6.4/10)

Genres
Drama, Mystery, Thriller

Actors
Julia Roberts, Ethan Hawke, Mahershala Ali

Plot Summary
A family's getaway to a luxurious rental home takes an ominous turn when a cyberattack knocks out their devices, and two strangers appear at their door.

1234567

Media Information
Code:
General

Format                      : Matroska
Format version              : Version 4
File size                   : 4.97 GiB
Duration                    : 2 h 21 min
Overall bit rate            : 5 026 kb/s
Frame rate                  : 24.000 FPS
Encoded date                : 2024-07-07 16:01:42 UTC
Writing application         : mkvmerge v85.0 ('Shame For You') 64-bit
Writing library             : libebml v1.4.5 + libmatroska v1.7.1
Attachments                 : Leave the World Behind (2023) (1080p NF WEB-DL x265 HEVC 10bit EAC3 Atmos 5.1 Ghost).jpg

Video

Format                      : HEVC
Format/Info                 : High Efficiency Video Coding
Format profile              : Main 10@L4@Main
Codec ID                    : V_MPEGH/ISO/HEVC
Duration                    : 2 h 21 min
Bit rate                    : 4 251 kb/s
Width                       : 1 920 pixels
Height                      : 800 pixels
Display aspect ratio        : 2.40:1
Frame rate mode             : Constant
Frame rate                  : 24.000 FPS
Color space                 : YUV
Chroma subsampling          : 4:2:0
Bit depth                   : 10 bits
Bits/(Pixel*Frame)          : 0.115
Stream size                 : 4.21 GiB (85%)
Writing library             : x265 3.6+13+1-726aec126:[Windows][MSVC 1939][64 bit] 10bit
Encoding settings           : cpuid=1111039 / frame-threads=5 / numa-pools=32 / wpp / no-pmode / no-pme / no-psnr / no-ssim / log-level=2 / input-csp=1 / input-res=1920x800 / interlace=0 / total-frames=204064 / level-idc=0 / high-tier=1 / uhd-bd=0 / ref=5 / no-allow-non-conformance / no-repeat-headers / annexb / no-aud / no-eob / no-eos / no-hrd / info / hash=0 / temporal-layers=0 / open-gop / min-keyint=24 / keyint=250 / gop-lookahead=0 / bframes=8 / b-adapt=2 / b-pyramid / bframe-bias=0 / rc-lookahead=80 / lookahead-slices=0 / scenecut=40 / no-hist-scenecut / radl=0 / no-splice / no-intra-refresh / ctu=64 / min-cu-size=8 / no-rect / no-amp / max-tu-size=32 / tu-inter-depth=4 / tu-intra-depth=4 / limit-tu=4 / rdoq-level=2 / dynamic-rd=0.00 / no-ssim-rd / signhide / no-tskip / nr-intra=0 / nr-inter=0 / no-constrained-intra / strong-intra-smoothing / max-merge=3 / limit-refs=1 / limit-modes / me=3 / subme=5 / merange=57 / temporal-mvp / no-frame-dup / no-hme / weightp / no-weightb / no-analyze-src-pics / deblock=-3:-3 / sao / no-sao-non-deblock / rd=4 / selective-sao=2 / no-early-skip / rskip / no-fast-intra / no-tskip-fast / no-cu-lossless / no-b-intra / no-splitrd-skip / rdpenalty=0 / psy-rd=2.00 / psy-rdoq=1.70 / no-rd-refine / no-lossless / cbqpoffs=0 / crqpoffs=0 / rc=abr / bitrate=4250 / qcomp=0.60 / qpstep=4 / stats-write=0 / stats-read=2 / cplxblur=20.0 / qblur=0.5 / ipratio=1.40 / pbratio=1.30 / aq-mode=5 / aq-strength=0.80 / aq-bias-strength=1.00 / cutree / zone-count=0 / no-strict-cbr / qg-size=32 / no-rc-grain / qpmax=69 / qpmin=0 / no-const-vbv / sar=0 / overscan=0 / videoformat=5 / range=0 / colorprim=1 / transfer=1 / colormatrix=1 / chromaloc=0 / display-window=0 / cll=0,0 / min-luma=0 / max-luma=1023 / log2-max-poc-lsb=8 / vui-timing-info / vui-hrd-info / slices=1 / no-opt-qp-pps / no-opt-ref-list-length-pps / no-multi-pass-opt-rps / scenecut-bias=0.05 / no-opt-cu-delta-qp / no-aq-motion / no-hdr10 / no-hdr10-opt / no-dhdr10-opt / no-idr-recovery-sei / analysis-reuse-level=0 / analysis-save-reuse-level=0 / analysis-load-reuse-level=0 / scale-factor=0 / refine-intra=0 / refine-inter=0 / refine-mv=1 / refine-ctu-distortion=0 / no-limit-sao / ctu-info=0 / no-lowpass-dct / refine-analysis-type=0 / copy-pic=1 / max-ausize-factor=1.0 / no-dynamic-refine / no-single-sei / no-hevc-aq / no-svt / no-field / qp-adaptation-range=1.00 / scenecut-aware-qp=0 / conformance-window-offsets / right=0 / bottom=0 / decoder-max-rate=0 / no-vbv-live-multi-pass / no-mcstf / no-sbrc
Language                    : English (US)
Default                     : No
Forced                      : No
Color range                 : Limited
Color primaries             : BT.709
Transfer characteristics    : BT.709
Matrix coefficients         : BT.709

Audio

Format                      : E-AC-3 JOC
Format/Info                 : Enhanced AC-3 with Joint Object Coding
Commercial name             : Dolby Digital Plus with Dolby Atmos
Codec ID                    : A_EAC3
Duration                    : 2 h 21 min
Bit rate mode               : Constant
Bit rate                    : 768 kb/s
Channel(s)                  : 6 channels
Channel layout              : L R C LFE Ls Rs
Sampling rate               : 48.0 kHz
Frame rate                  : 31.250 FPS (1536 SPF)
Compression mode            : Lossy
Stream size                 : 778 MiB (15%)
Title                       : Surround 5.1
Language                    : English (US)
Service kind                : Complete Main
Default                     : No
Forced                      : No

Subtitles

Text #1
ID                          : 3
Format                      : UTF-8
Codec ID                    : S_TEXT/UTF8
Codec ID/Info               : UTF-8 Plain Text
Duration                    : 2 h 11 min
Bit rate                    : 65 b/s
Frame rate                  : 0.216 FPS
Count of elements           : 1704
Stream size                 : 63.2 KiB (0%)
Language                    : English (US)
Default                     : No
Forced                      : No

Text #2
ID                          : 4
Format                      : UTF-8
Codec ID                    : S_TEXT/UTF8
Codec ID/Info               : UTF-8 Plain Text
Duration                    : 2 h 13 min
Bit rate                    : 70 b/s
Frame rate                  : 0.242 FPS
Count of elements           : 1935
Stream size                 : 68.4 KiB (0%)
Title                       : SDH
Language                    : English (US)
Default                     : No
Forced                      : No

Text #3
ID                          : 5
Format                      : UTF-8
Codec ID                    : S_TEXT/UTF8
Codec ID/Info               : UTF-8 Plain Text
Duration                    : 2 h 18 min
Bit rate                    : 86 b/s
Frame rate                  : 0.184 FPS
Count of elements           : 1526
Stream size                 : 87.3 KiB (0%)
Language                    : Arabic (EG)
Default                     : No
Forced                      : No

Text #4
ID                          : 6
Format                      : UTF-8
Codec ID                    : S_TEXT/UTF8
Codec ID/Info               : UTF-8 Plain Text
Duration                    : 2 h 18 min
Bit rate                    : 48 b/s
Frame rate                  : 0.177 FPS
Count of elements           : 1468
Stream size                 : 49.5 KiB (0%)
Language                    : Basque (ES)
Default                     : No
Forced                      : No

Text #5
ID                          : 7
Format                      : UTF-8
Codec ID                    : S_TEXT/UTF8
Codec ID/Info               : UTF-8 Plain Text
Duration                    : 2 h 17 min
Bit rate                    : 47 b/s
Frame rate                  : 0.172 FPS
Count of elements           : 1424
Stream size                 : 48.0 KiB (0%)
Language                    : Catalan (ES)
Default                     : No
Forced                      : No

Text #6
ID                          : 8
Format                      : UTF-8
Codec ID                    : S_TEXT/UTF8
Codec ID/Info               : UTF-8 Plain Text
Duration                    : 2 h 17 min
Bit rate                    : 48 b/s
Frame rate                  : 0.187 FPS
Count of elements           : 1541
Stream size                 : 48.5 KiB (0%)
Title                       : Simplified
Language                    : Chinese-Hans-CN
Default                     : No
Forced                      : No

Text #7
ID                          : 9
Format                      : UTF-8
Codec ID                    : S_TEXT/UTF8
Codec ID/Info               : UTF-8 Plain Text
Duration                    : 2 h 18 min
Bit rate                    : 46 b/s
Frame rate                  : 0.193 FPS
Count of elements           : 1600
Stream size                 : 46.6 KiB (0%)
Title                       : Traditional
Language                    : Chinese-Hant-CN
Default                     : No
Forced                      : No

Text #8
ID                          : 10
Format                      : UTF-8
Codec ID                    : S_TEXT/UTF8
Codec ID/Info               : UTF-8 Plain Text
Duration                    : 2 h 18 min
Bit rate                    : 42 b/s
Frame rate                  : 0.182 FPS
Count of elements           : 1511
Stream size                 : 43.4 KiB (0%)
Language                    : Croatian (HU)
Default                     : No
Forced                      : No

Text #9
ID                          : 11
Format                      : UTF-8
Codec ID                    : S_TEXT/UTF8
Codec ID/Info               : UTF-8 Plain Text
Duration                    : 2 h 10 min
Bit rate                    : 54 b/s
Frame rate                  : 0.198 FPS
Count of elements           : 1556
Stream size                 : 52.5 KiB (0%)
Language                    : Czech (CZ)
Default                     : No
Forced                      : No

Text #10
ID                          : 12
Format                      : UTF-8
Codec ID                    : S_TEXT/UTF8
Codec ID/Info               : UTF-8 Plain Text
Duration                    : 2 h 18 min
Bit rate                    : 47 b/s
Frame rate                  : 0.173 FPS
Count of elements           : 1432
Stream size                 : 47.7 KiB (0%)
Language                    : Danish (DK)
Default                     : No
Forced                      : No

Text #11
ID                          : 13
Format                      : UTF-8
Codec ID                    : S_TEXT/UTF8
Codec ID/Info               : UTF-8 Plain Text
Duration                    : 2 h 18 min
Bit rate                    : 45 b/s
Frame rate                  : 0.152 FPS
Count of elements           : 1259
Stream size                 : 45.5 KiB (0%)
Language                    : Dutch (NL)
Default                     : No
Forced                      : No

Text #12
ID                          : 14
Format                      : UTF-8
Codec ID                    : S_TEXT/UTF8
Codec ID/Info               : UTF-8 Plain Text
Duration                    : 2 h 18 min
Bit rate                    : 80 b/s
Frame rate                  : 0.183 FPS
Count of elements           : 1516
Stream size                 : 81.4 KiB (0%)
Language                    : Greek (GR)
Default                     : No
Forced                      : No

Text #13
ID                          : 15
Format                      : UTF-8
Codec ID                    : S_TEXT/UTF8
Codec ID/Info               : UTF-8 Plain Text
Duration                    : 2 h 18 min
Bit rate                    : 46 b/s
Frame rate                  : 0.146 FPS
Count of elements           : 1206
Stream size                 : 46.6 KiB (0%)
Language                    : Finnish (FI)
Default                     : No
Forced                      : No

Text #14
ID                          : 16
Format                      : UTF-8
Codec ID                    : S_TEXT/UTF8
Codec ID/Info               : UTF-8 Plain Text
Duration                    : 2 h 17 min
Bit rate                    : 50 b/s
Frame rate                  : 0.171 FPS
Count of elements           : 1410
Stream size                 : 51.3 KiB (0%)
Title                       : Suomi
Language                    : Finnish (IL)
Default                     : No
Forced                      : No

Text #15
ID                          : 17
Format                      : UTF-8
Codec ID                    : S_TEXT/UTF8
Codec ID/Info               : UTF-8 Plain Text
Duration                    : 2 h 18 min
Bit rate                    : 49 b/s
Frame rate                  : 0.181 FPS
Count of elements           : 1497
Stream size                 : 49.8 KiB (0%)
Language                    : French (FR)
Default                     : No
Forced                      : No

Text #16
ID                          : 18
Format                      : UTF-8
Codec ID                    : S_TEXT/UTF8
Codec ID/Info               : UTF-8 Plain Text
Duration                    : 2 h 18 min
Bit rate                    : 45 b/s
Frame rate                  : 0.185 FPS
Count of elements           : 1535
Stream size                 : 46.5 KiB (0%)
Language                    : Galician (ES)
Default                     : No
Forced                      : No

Text #17
ID                          : 19
Format                      : UTF-8
Codec ID                    : S_TEXT/UTF8
Codec ID/Info               : UTF-8 Plain Text
Duration                    : 2 h 18 min
Bit rate                    : 49 b/s
Frame rate                  : 0.178 FPS
Count of elements           : 1472
Stream size                 : 49.7 KiB (0%)
Language                    : German (DE)
Default                     : No
Forced                      : No

Text #18
ID                          : 20
Format                      : UTF-8
Codec ID                    : S_TEXT/UTF8
Codec ID/Info               : UTF-8 Plain Text
Duration                    : 2 h 18 min
Bit rate                    : 82 b/s
Frame rate                  : 0.185 FPS
Count of elements           : 1531
Stream size                 : 83.7 KiB (0%)
Language                    : Hebrew (IL)
Default                     : No
Forced                      : No

Text #19
ID                          : 21
Format                      : UTF-8
Codec ID                    : S_TEXT/UTF8
Codec ID/Info               : UTF-8 Plain Text
Duration                    : 2 h 10 min
Bit rate                    : 56 b/s
Frame rate                  : 0.184 FPS
Count of elements           : 1444
Stream size                 : 54.4 KiB (0%)
Title                       : Magyar
Language                    : Hungarian (HU)
Default                     : No
Forced                      : No

Text #20
ID                          : 22
Format                      : UTF-8
Codec ID                    : S_TEXT/UTF8
Codec ID/Info               : UTF-8 Plain Text
Duration                    : 2 h 18 min
Bit rate                    : 46 b/s
Frame rate                  : 0.182 FPS
Count of elements           : 1509
Stream size                 : 46.9 KiB (0%)
Language                    : Indonesian (ID)
Default                     : No
Forced                      : No

Text #21
ID                          : 23
Format                      : UTF-8
Codec ID                    : S_TEXT/UTF8
Codec ID/Info               : UTF-8 Plain Text
Duration                    : 2 h 18 min
Bit rate                    : 47 b/s
Frame rate                  : 0.175 FPS
Count of elements           : 1446
Stream size                 : 47.9 KiB (0%)
Language                    : Italian (IT)
Default                     : No
Forced                      : No

Text #22
ID                          : 24
Format                      : UTF-8
Codec ID                    : S_TEXT/UTF8
Codec ID/Info               : UTF-8 Plain Text
Duration                    : 2 h 18 min
Bit rate                    : 44 b/s
Frame rate                  : 0.186 FPS
Count of elements           : 1542
Stream size                 : 44.9 KiB (0%)
Language                    : Japanese (JP)
Default                     : No
Forced                      : No

Text #23
ID                          : 25
Format                      : UTF-8
Codec ID                    : S_TEXT/UTF8
Codec ID/Info               : UTF-8 Plain Text
Duration                    : 2 h 18 min
Bit rate                    : 51 b/s
Frame rate                  : 0.184 FPS
Count of elements           : 1522
Stream size                 : 52.3 KiB (0%)
Language                    : Korean (KR)
Default                     : No
Forced                      : No

Text #24
ID                          : 26
Format                      : UTF-8
Codec ID                    : S_TEXT/UTF8
Codec ID/Info               : UTF-8 Plain Text
Duration                    : 2 h 18 min
Bit rate                    : 48 b/s
Frame rate                  : 0.179 FPS
Count of elements           : 1482
Stream size                 : 48.7 KiB (0%)
Language                    : Malay (MY)
Default                     : No
Forced                      : No

Text #25
ID                          : 27
Format                      : UTF-8
Codec ID                    : S_TEXT/UTF8
Codec ID/Info               : UTF-8 Plain Text
Duration                    : 2 h 18 min
Bit rate                    : 47 b/s
Frame rate                  : 0.162 FPS
Count of elements           : 1345
Stream size                 : 48.5 KiB (0%)
Language                    : Norwegian Bokmal (NO)
Default                     : No
Forced                      : No

Text #26
ID                          : 28
Format                      : UTF-8
Codec ID                    : S_TEXT/UTF8
Codec ID/Info               : UTF-8 Plain Text
Duration                    : 2 h 18 min
Bit rate                    : 44 b/s
Frame rate                  : 0.174 FPS
Count of elements           : 1437
Stream size                 : 44.6 KiB (0%)
Language                    : Polish (PL)
Default                     : No
Forced                      : No

Text #27
ID                          : 29
Format                      : UTF-8
Codec ID                    : S_TEXT/UTF8
Codec ID/Info               : UTF-8 Plain Text
Duration                    : 2 h 18 min
Bit rate                    : 49 b/s
Frame rate                  : 0.173 FPS
Count of elements           : 1434
Stream size                 : 50.2 KiB (0%)
Language                    : Portuguese (PT)
Default                     : No
Forced                      : No

Text #28
ID                          : 30
Format                      : UTF-8
Codec ID                    : S_TEXT/UTF8
Codec ID/Info               : UTF-8 Plain Text
Duration                    : 2 h 17 min
Bit rate                    : 59 b/s
Frame rate                  : 0.196 FPS
Count of elements           : 1617
Stream size                 : 59.6 KiB (0%)
Title                       : Brazilian
Language                    : Portuguese (BR)
Default                     : No
Forced                      : No

Text #29
ID                          : 31
Format                      : UTF-8
Codec ID                    : S_TEXT/UTF8
Codec ID/Info               : UTF-8 Plain Text
Duration                    : 2 h 18 min
Bit rate                    : 49 b/s
Frame rate                  : 0.171 FPS
Count of elements           : 1419
Stream size                 : 50.0 KiB (0%)
Language                    : Romanian (RO)
Default                     : No
Forced                      : No

Text #30
ID                          : 32
Format                      : UTF-8
Codec ID                    : S_TEXT/UTF8
Codec ID/Info               : UTF-8 Plain Text
Duration                    : 2 h 18 min
Bit rate                    : 76 b/s
Frame rate                  : 0.199 FPS
Count of elements           : 1648
Stream size                 : 77.2 KiB (0%)
Language                    : Russian (RU)
Default                     : No
Forced                      : No

Text #31
ID                          : 33
Format                      : UTF-8
Codec ID                    : S_TEXT/UTF8
Codec ID/Info               : UTF-8 Plain Text
Duration                    : 2 h 10 min
Bit rate                    : 58 b/s
Frame rate                  : 0.201 FPS
Count of elements           : 1575
Stream size                 : 56.3 KiB (0%)
Language                    : Spanish (ES)
Default                     : No
Forced                      : No

Text #32
ID                          : 34
Format                      : UTF-8
Codec ID                    : S_TEXT/UTF8
Codec ID/Info               : UTF-8 Plain Text
Duration                    : 2 h 18 min
Bit rate                    : 46 b/s
Frame rate                  : 0.180 FPS
Count of elements           : 1493
Stream size                 : 47.1 KiB (0%)
Title                       : Latin American
Language                    : Spanish (Latin America)
Default                     : No
Forced                      : No

Text #33
ID                          : 35
Format                      : UTF-8
Codec ID                    : S_TEXT/UTF8
Codec ID/Info               : UTF-8 Plain Text
Duration                    : 2 h 18 min
Bit rate                    : 50 b/s
Frame rate                  : 0.146 FPS
Count of elements           : 1211
Stream size                 : 50.6 KiB (0%)
Language                    : Swedish (SE)
Default                     : No
Forced                      : No

Text #34
ID                          : 36
Format                      : UTF-8
Codec ID                    : S_TEXT/UTF8
Codec ID/Info               : UTF-8 Plain Text
Duration                    : 2 h 18 min
Bit rate                    : 129 b/s
Frame rate                  : 0.186 FPS
Count of elements           : 1538
Stream size                 : 131 KiB (0%)
Language                    : Thai (TH)
Default                     : No
Forced                      : No

Text #35
ID                          : 37
Format                      : UTF-8
Codec ID                    : S_TEXT/UTF8
Codec ID/Info               : UTF-8 Plain Text
Duration                    : 2 h 17 min
Bit rate                    : 51 b/s
Frame rate                  : 0.166 FPS
Count of elements           : 1373
Stream size                 : 52.0 KiB (0%)
Language                    : Turkish (TR)
Default                     : No
Forced                      : No

Text #36
ID                          : 38
Format                      : UTF-8
Codec ID                    : S_TEXT/UTF8
Codec ID/Info               : UTF-8 Plain Text
Duration                    : 2 h 18 min
Bit rate                    : 77 b/s
Frame rate                  : 0.183 FPS
Count of elements           : 1512
Stream size                 : 78.0 KiB (0%)
Language                    : Ukrainian (UA)
Default                     : No
Forced                      : No

Text #37
ID                          : 39
Format                      : UTF-8
Codec ID                    : S_TEXT/UTF8
Codec ID/Info               : UTF-8 Plain Text
Duration                    : 2 h 18 min
Bit rate                    : 64 b/s
Frame rate                  : 0.166 FPS
Count of elements           : 1379
Stream size                 : 65.3 KiB (0%)
Language                    : Vietnamese (VN)
Default                     : No
Forced                      : No

Chapters

00:00:00.000                : en-US:Part 01
02:12:30.707                : en-US:Credits


Source Information
Code: Leave.the.World.Behind.2023.2160p.NF.WEB-DL.DDPA5.1.HEVC-HHWEB (12.55 GB)
Note From QxR:
Quote: Whilst we are happy for our releases to be re-posted on a platform we aren't on, please do so in an 'as-is' format. We ask that you do not create a new torrent, include all descriptions you see above including the QxR logo, tags, notes and screenshots. If you'd like to become a permanent poster on a website we don't post to, feel free to get in contact with a QxR member.

Leave the World Behind (2023) (1080p NF WEB-DL x265 HEVC 10bit EAC3 Atmos 5.1 Ghost)