PXT24

PXT24

Les Cinq Diables AKA The Five Devils (2022) (1080p BluRay x265 10bit EAC3 5.1 French - timesuck)
  • Category
    : Movies
  • Type
    : HEVC/x265
  • Language
    : French
  • Total size
    : 5.20 GB
  • Date uploaded
    : 08 Jul ,2024

--- MOVIE ---
Les Cinq Diables AKA The Five Devils (2022)


--- SCREENS ---

Les-Cinq-Diables-AKA-The-Five-Devils-2022-1080p-BDRip-x265-10bit-EAC3-5-1-timesuck-34

Les-Cinq-Diables-AKA-The-Five-Devils-2022-1080p-BDRip-x265-10bit-EAC3-5-1-timesuck-64

Les-Cinq-Diables-AKA-The-Five-Devils-2022-1080p-BDRip-x265-10bit-EAC3-5-1-timesuck-108

Les-Cinq-Diables-AKA-The-Five-Devils-2022-1080p-BDRip-x265-10bit-EAC3-5-1-timesuck-164

Les-Cinq-Diables-AKA-The-Five-Devils-2022-1080p-BDRip-x265-10bit-EAC3-5-1-timesuck-180

Les-Cinq-Diables-AKA-The-Five-Devils-2022-1080p-BDRip-x265-10bit-EAC3-5-1-timesuck-199


PROCESS
Avg QP : 27.49
frame I : 925, Avg QP:22.70 kb/s: 23973.18
frame P : 24190, Avg QP:24.22 kb/s: 14761.19
frame B : 113101, Avg QP:28.23 kb/s: 4905.19
Weighted P-Frames : Y:5.3% UV:4.6%
consecutive B-frames : 4.7% 3.4% 6.9% 22.8% 11.2% 19.3% 8.9% 13.2% 9.7%


SOURCE
File Name : LES_CINQ_DIABLES_WiHD (Thanks!)
Format : BDAV
Format/Info : Blu-ray Video
File Size : 40.4 GiB
Overall Bitrate : 44.4 Mb/s
Resolution : 1920 x 1080


MEDIAINFO
General
Unique ID : 256971572139184687725805448040654815727 (0xC152ECB03875548971EC29B5E9D7C1EF)
Complete name : Les Cinq Diables AKA The Five Devils (2022) (1080p BDRip x265 10bit EAC3 5.1 - timesuck).mkv
Format : Matroska
Format version : Version 4
File size : 5.23 GiB
Duration : 1 h 35 min
Overall bit rate : 7 795 kb/s
Frame rate : 24.000 FPS
Movie name : Les Cinq Diables AKA The Five Devils (2022)
Encoded date : 2023-06-13 19:18:15 UTC
Writing application : mkvmerge v77.0 ('Elemental') 64-bit
Writing library : libebml v1.4.4 + libmatroska v1.7.1
Attachments : the-five-devils-poster.jpg
Encoded by : timesuck

Video
ID : 1
Format : HEVC
Format/Info : High Efficiency Video Coding
Format profile : Main 10@L4@Main
Codec ID : V_MPEGH/ISO/HEVC
Duration : 1 h 35 min
Bit rate : 6 759 kb/s
Width : 1 920 pixels
Height : 800 pixels
Display aspect ratio : 2.40:1
Frame rate mode : Constant
Frame rate : 24.000 FPS
Color space : YUV
Chroma subsampling : 4:2:0
Bit depth : 10 bits
Bits/(Pixel*Frame) : 0.183
Stream size : 4.53 GiB (87%)
Writing library : x265 3.5+37+12-4e46995bc:[Windows][MSVC 1931][64 bit] 10bit
Encoding settings : cpuid=1111039 / frame-threads=4 / numa-pools=16 / wpp / no-pmode / no-pme / no-psnr / no-ssim / log-level=2 / input-csp=1 / input-res=1920x800 / interlace=0 / total-frames=138216 / level-idc=0 / high-tier=1 / uhd-bd=0 / ref=4 / no-allow-non-conformance / no-repeat-headers / annexb / no-aud / no-eob / no-eos / no-hrd / info / hash=0 / no-temporal-layers / open-gop / min-keyint=24 / keyint=250 / gop-lookahead=0 / bframes=8 / b-adapt=2 / b-pyramid / bframe-bias=0 / rc-lookahead=80 / lookahead-slices=4 / scenecut=40 / no-hist-scenecut / radl=0 / no-splice / no-intra-refresh / ctu=64 / min-cu-size=8 / rect / no-amp / max-tu-size=32 / tu-inter-depth=1 / tu-intra-depth=1 / limit-tu=0 / rdoq-level=2 / dynamic-rd=0.00 / no-ssim-rd / signhide / no-tskip / nr-intra=0 / nr-inter=0 / no-constrained-intra / strong-intra-smoothing / max-merge=3 / limit-refs=3 / limit-modes / me=3 / subme=5 / merange=57 / temporal-mvp / no-frame-dup / no-hme / weightp / no-weightb / no-analyze-src-pics / deblock=0:0 / sao / no-sao-non-deblock / rd=4 / selective-sao=4 / no-early-skip / rskip / no-fast-intra / no-tskip-fast / no-cu-lossless / no-b-intra / no-splitrd-skip / rdpenalty=0 / psy-rd=1.30 / psy-rdoq=2.00 / no-rd-refine / no-lossless / cbqpoffs=0 / crqpoffs=0 / rc=crf / crf=22.5 / qcomp=0.60 / qpstep=4 / stats-write=0 / stats-read=0 / ipratio=1.40 / pbratio=1.30 / aq-mode=5 / aq-strength=1.10 / aq-bias-strength=1.00 / cutree / zone-count=0 / no-strict-cbr / qg-size=32 / no-rc-grain / qpmax=69 / qpmin=0 / no-const-vbv / sar=0 / overscan=0 / videoformat=5 / range=0 / colorprim=1 / transfer=1 / colormatrix=1 / chromaloc=0 / display-window=0 / cll=0,0 / min-luma=0 / max-luma=1023 / log2-max-poc-lsb=8 / vui-timing-info / vui-hrd-info / slices=1 / no-opt-qp-pps / no-opt-ref-list-length-pps / no-multi-pass-opt-rps / scenecut-bias=0.05 / hist-threshold=0.03 / no-opt-cu-delta-qp / no-aq-motion / no-hdr10 / no-hdr10-opt / no-dhdr10-opt / no-idr-recovery-sei / analysis-reuse-level=0 / analysis-save-reuse-level=0 / analysis-load-reuse-level=0 / scale-factor=0 / refine-intra=0 / refine-inter=0 / refine-mv=1 / refine-ctu-distortion=0 / no-limit-sao / ctu-info=0 / no-lowpass-dct / refine-analysis-type=0 / copy-pic=1 / max-ausize-factor=1.0 / no-dynamic-refine / no-single-sei / no-hevc-aq / no-svt / no-field / qp-adaptation-range=1.00 / scenecut-aware-qp=0conformance-window-offsets / right=0 / bottom=0 / decoder-max-rate=0 / no-vbv-live-multi-pass
Default : Yes
Forced : No
Color range : Limited
Color primaries : BT.709
Transfer characteristics : BT.709
Matrix coefficients : BT.709

Audio
ID : 2
Format : E-AC-3
Format/Info : Enhanced AC-3
Commercial name : Dolby Digital Plus
Codec ID : A_EAC3
Duration : 1 h 35 min
Bit rate mode : Constant
Bit rate : 1 024 kb/s
Channel(s) : 6 channels
Channel layout : L R C LFE Ls Rs
Sampling rate : 48.0 kHz
Frame rate : 31.250 FPS (1536 SPF)
Compression mode : Lossy
Stream size : 703 MiB (13%)
Title : French DDP
Language : French
Service kind : Complete Main
Default : Yes
Forced : No

Text #1
ID : 3
Format : UTF-8
Codec ID : S_TEXT/UTF8
Codec ID/Info : UTF-8 Plain Text
Duration : 1 h 26 min
Bit rate : 23 b/s
Frame rate : 0.100 FPS
Count of elements : 515
Stream size : 14.9 KiB (0%)
Language : English
Default : No
Forced : No

Text #2
ID : 4
Format : PGS
Muxing mode : zlib
Codec ID : S_HDMV/PGS
Codec ID/Info : Picture based subtitle format used on BDs/HD-DVDs
Duration : 1 h 35 min
Bit rate : 19.2 kb/s
Frame rate : 0.436 FPS
Count of elements : 2500
Stream size : 13.2 MiB (0%)
Language : French
Default : No
Forced : No

Menu
00:00:00.000 : en:Chapter 01
00:08:21.625 : en:Chapter 02
00:16:02.958 : en:Chapter 03
00:26:06.417 : en:Chapter 04
00:34:20.750 : en:Chapter 05
00:43:20.333 : en:Chapter 06
00:51:25.083 : en:Chapter 07
00:59:49.542 : en:Chapter 08
01:07:36.125 : en:Chapter 09
01:14:04.917 : en:Chapter 10
01:22:44.958 : en:Chapter 11
01:31:53.833 : en:Chapter 12