PXT24

PXT24

Marmalade.2024.1080p.NF.WEB-DL.DDP5.1.x264-EniaHD
  • Category
    : Movies
  • Type
    : HD
  • Language
    : English
  • Total size
    : 3.90 GB
  • Date uploaded
    : 10 Jul ,2024

Marmalade.2024.1080p.NF.WEB-DL.DDP5.1.x264-EniaHD

https://www.imdb.com/title/tt21275544

NETFLIX

Video: MPEG-4 AVC / 1920x1080 / 5000 kbps / 23.976 fps
Audio: English E-AC-3 5.1 / 640 kbps / 48 kHz
Subtitles: English

Code: General
Unique ID : 82696025500880732138952216713462614795 (0x3E36ACD88E8F523DAC74ECADE8890B0B)
Complete name : Marmalade.2024.1080p.NF.WEB-DL.DDP5.1.x264-EniaHD.mkv
Format : Matroska
Format version : Version 4
File size : 3.91 GiB
Duration : 1 h 39 min
Overall bit rate mode : Variable
Overall bit rate : 5 626 kb/s
Frame rate : 23.976 FPS
Movie name : Marmalade (2024) - EniaHD
Writing application : mkvmerge v57.0.0 ('Till The End') 64-bit
Writing library : libebml v1.4.2 + libmatroska v1.6.4

Video
ID : 1
Format : AVC
Format/Info : Advanced Video Codec
Format profile : Main@L4
Format settings : CABAC / 3 Ref Frames
Format settings, CABAC : Yes
Format settings, Reference fra : 3 frames
Codec ID : V_MPEG4/ISO/AVC
Duration : 1 h 39 min
Bit rate mode : Variable
Bit rate : 5 000 kb/s
Maximum bit rate : 7 500 kb/s
Width : 1 920 pixels
Height : 1 080 pixels
Display aspect ratio : 16:9
Frame rate mode : Constant
Frame rate : 23.976 (24000/1001) FPS
Color space : YUV
Chroma subsampling : 4:2:0
Bit depth : 8 bits
Scan type : Progressive
Bits/(Pixel*Frame) : 0.101
Stream size : 3.47 GiB (89%)
Writing library : x264 core 148 r2727 7d026e8
Encoding settings : cabac=1 / ref=3 / deblock=1:0:0 / analyse=0x1:0x111 / me=umh / subme=10 / psy=1 / psy_rd=1.00:0.00 / mixed_ref=1 / me_range=24 / chroma_me=1 / trellis=2 / 8x8dct=0 / cqm=0 / deadzone=21,11 / fast_pskip=1 / chroma_qp_offset=-2 / threads=6 / lookahead_threads=1 / sliced_threads=0 / nr=0 / decimate=1 / interlaced=0 / bluray_compat=0 / stitchable=1 / constrained_intra=0 / bframes=2 / b_pyramid=0 / b_adapt=2 / b_bias=0 / direct=3 / weightb=1 / open_gop=0 / weightp=2 / keyint=240 / keyint_min=121 / scenecut=0 / intra_refresh=0 / rc_lookahead=48 / rc=2pass / mbtree=1 / bitrate=5000 / ratetol=1.0 / qcomp=0.50 / qpmin=6 / qpmax=51 / qpstep=4 / cplxblur=20.0 / qblur=0.5 / vbv_maxrate=7500 / vbv_bufsize=10000 / nal_hrd=vbr / filler=0 / ip_ratio=1.40 / aq=1:1.00
Default : Yes
Forced : No

Audio
ID : 2
Format : E-AC-3
Format/Info : Enhanced AC-3
Commercial name : Dolby Digital Plus
Codec ID : A_EAC3
Duration : 1 h 39 min
Bit rate mode : Constant
Bit rate : 640 kb/s
Channel(s) : 6 channels
Channel layout : L R C LFE Ls Rs
Sampling rate : 48.0 kHz
Frame rate : 31.250 FPS (1536 SPF)
Compression mode : Lossy
Stream size : 456 MiB (11%)
Title : English
Language : English
Service kind : Complete Main
Default : Yes
Forced : No

Text
ID : 3
Format : UTF-8
Codec ID : S_TEXT/UTF8
Codec ID/Info : UTF-8 Plain Text
Duration : 1 h 39 min
Bit rate : 70 b/s
Frame rate : 0.296 FPS
Count of elements : 1765
Stream size : 51.2 KiB (0%)
Title : English (SDH)
Language : English
Default : No
Forced : No

thumb-a572332bfd4c3fc3d1349f7a7e0eb60f thumb-1d04389b251828a071b421fd8a1c4885 thumb-2b914ea1df4f88e9257520435da7fcd2 thumb-e7f08296305dfee0cfc2532af15e69ca