PXT24

PXT24

Narcos : Mexico - Season 01 S01 [2018] 1080p BDRip x265 DTS-HD MA 5.1 Kira [SEV]
  • Category
    : TV
  • Type
    : HEVC/x265
  • Language
    : English
  • Total size
    : 49.60 GB
  • Date uploaded
    : 04 May ,2024

SEV-logo

Source vs Encode :- Link

Screenshot's
OGZuRZqs_t D8KvccfL_t pg0uZCLB_t 1w6KREoJ_t Re64K1Da_t bnSar0wO_t KW3H1Vjn_t GytA424s_t U1OEw9WK_t


Media Information
Code: General
Unique ID : 336574668636037523721330953525534098572 (0xFD35EC5C651DD49E7A4A46064523848C)
Complete name : Narcos - Mexico - S01.E01 - Camelot 1080p BDRip x265 DTS-HD MA 5.1 Kira [SEV].mkv
Format : Matroska
Format version : Version 4
File size : 5.44 GiB
Duration : 57 min 37 s
Overall bit rate mode : Variable
Overall bit rate : 13.5 Mb/s
Frame rate : 23.976 FPS
Movie name : | Narcos : Mexico : S01.E01 : Camelot | 1080p | BDRip | x265 | DTS:HD MA 5.1 @ 1918 Kbps | Kira [SEV] |
Encoded date : 2024-02-27 03:45:20 UTC
Writing application : mkvmerge v82.0 ('I'm The President') 64-bit
Writing library : libebml v1.4.5 + libmatroska v1.7.1

Video
ID : 1
Format : HEVC
Format/Info : High Efficiency Video Coding
Format profile : Main 10@L4@Main
Codec ID : V_MPEGH/ISO/HEVC
Duration : 57 min 37 s
Bit rate : 11.0 Mb/s
Width : 1 920 pixels
Height : 1 080 pixels
Display aspect ratio : 16:9
Frame rate mode : Constant
Frame rate : 23.976 (24000/1001) FPS
Color space : YUV
Chroma subsampling : 4:2:0
Bit depth : 10 bits
Bits/(Pixel*Frame) : 0.221
Stream size : 4.42 GiB (81%)
Title : | Narcos : Mexico : S01.E01 : Camelot | 1080p | BDRip | x265 | DTS:HD MA 5.1 @ 1918 Kbps | Kira [SEV] |
Writing library : x265 3.5+153+15-fc339385e:[Windows][MSVC 1937][64 bit] 10bit
Encoding settings : cpuid=1111039 / frame-threads=5 / numa-pools=32 / wpp / no-pmode / no-pme / no-psnr / no-ssim / log-level=2 / input-csp=1 / input-res=1920x1080 / interlace=0 / total-frames=41449 / level-idc=0 / high-tier=1 / uhd-bd=0 / ref=5 / no-allow-non-conformance / no-repeat-headers / annexb / no-aud / no-eob / no-eos / no-hrd / info / hash=0 / temporal-layers=0 / open-gop / min-keyint=23 / keyint=250 / gop-lookahead=0 / bframes=16 / b-adapt=2 / b-pyramid / bframe-bias=0 / rc-lookahead=100 / lookahead-slices=0 / scenecut=40 / no-hist-scenecut / radl=0 / no-splice / no-intra-refresh / ctu=64 / min-cu-size=8 / no-rect / no-amp / max-tu-size=32 / tu-inter-depth=4 / tu-intra-depth=4 / limit-tu=4 / rdoq-level=2 / dynamic-rd=0.00 / no-ssim-rd / signhide / no-tskip / nr-intra=0 / nr-inter=0 / no-constrained-intra / no-strong-intra-smoothing / max-merge=5 / limit-refs=0 / limit-modes / me=3 / subme=7 / merange=92 / temporal-mvp / no-frame-dup / no-hme / weightp / weightb / no-analyze-src-pics / deblock=-3:-3 / no-sao / no-sao-non-deblock / rd=4 / selective-sao=0 / no-early-skip / rskip / no-fast-intra / no-tskip-fast / no-cu-lossless / b-intra / no-splitrd-skip / rdpenalty=0 / psy-rd=1.50 / psy-rdoq=1.00 / no-rd-refine / no-lossless / cbqpoffs=0 / crqpoffs=0 / rc=crf / crf=18.0 / qcomp=0.60 / qpstep=4 / stats-write=0 / stats-read=0 / ipratio=1.40 / pbratio=1.30 / aq-mode=3 / aq-strength=1.00 / aq-bias-strength=1.00 / cutree / zone-count=0 / no-strict-cbr / qg-size=32 / no-rc-grain / qpmax=69 / qpmin=0 / no-const-vbv / sar=0 / overscan=0 / videoformat=5 / range=0 / colorprim=2 / transfer=2 / colormatrix=2 / chromaloc=0 / display-window=0 / cll=0,0 / min-luma=0 / max-luma=1023 / log2-max-poc-lsb=8 / vui-timing-info / vui-hrd-info / slices=1 / no-opt-qp-pps / no-opt-ref-list-length-pps / no-multi-pass-opt-rps / scenecut-bias=0.05 / no-opt-cu-delta-qp / no-aq-motion / no-hdr10 / no-hdr10-opt / no-dhdr10-opt / no-idr-recovery-sei / analysis-reuse-level=0 / analysis-save-reuse-level=0 / analysis-load-reuse-level=0 / scale-factor=0 / refine-intra=0 / refine-inter=0 / refine-mv=1 / refine-ctu-distortion=0 / no-limit-sao / ctu-info=0 / no-lowpass-dct / refine-analysis-type=0 / copy-pic=1 / max-ausize-factor=1.0 / no-dynamic-refine / no-single-sei / no-hevc-aq / no-svt / no-field / qp-adaptation-range=1.00 / scenecut-aware-qp=0 / conformance-window-offsets / right=0 / bottom=0 / decoder-max-rate=0 / no-vbv-live-multi-pass / no-mcstf / no-sbrc
Language : English
Default : Yes
Forced : No

Audio
ID : 2
Format : DTS XLL
Format/Info : Digital Theater Systems
Commercial name : DTS-HD Master Audio
Codec ID : A_DTS
Duration : 57 min 37 s
Bit rate mode : Variable
Bit rate : 1 918 kb/s
Channel(s) : 6 channels
Channel layout : C L R Ls Rs LFE
Sampling rate : 48.0 kHz
Frame rate : 93.750 FPS (512 SPF)
Bit depth : 16 bits
Compression mode : Lossless
Stream size : 791 MiB (14%)
Title : English BD DTS:HD MA 5.1 @ 1918 Kbps
Language : English
Default : Yes
Forced : No

Text #1
ID : 3
Format : PGS
Codec ID : S_HDMV/PGS
Codec ID/Info : Picture based subtitle format used on BDs/HD-DVDs
Duration : 55 min 58 s
Bit rate : 45.7 kb/s
Frame rate : 0.485 FPS
Count of elements : 1630
Stream size : 18.3 MiB (0%)
Title : English SDH BD PGS Sub
Language : English
Default : No
Forced : No

Text #2
ID : 4
Format : PGS
Codec ID : S_HDMV/PGS
Codec ID/Info : Picture based subtitle format used on BDs/HD-DVDs
Duration : 55 min 58 s
Bit rate : 41.6 kb/s
Frame rate : 0.441 FPS
Count of elements : 1480
Stream size : 16.7 MiB (0%)
Title : English BD PGS Sub
Language : English
Default : Yes
Forced : No

Text #3
ID : 5
Format : PGS
Codec ID : S_HDMV/PGS
Codec ID/Info : Picture based subtitle format used on BDs/HD-DVDs
Duration : 51 min 1 s
Bit rate : 24.4 kb/s
Frame rate : 0.287 FPS
Count of elements : 878
Stream size : 8.91 MiB (0%)
Title : English (Forced) BD PGS Sub
Language : English
Default : No
Forced : Yes

Text #4
ID : 6
Format : PGS
Muxing mode : zlib
Codec ID : S_HDMV/PGS
Codec ID/Info : Picture based subtitle format used on BDs/HD-DVDs
Duration : 56 min 10 s
Bit rate : 20.8 kb/s
Frame rate : 0.508 FPS
Count of elements : 1712
Stream size : 8.35 MiB (0%)
Title : Arabic
Language : Arabic
Default : No
Forced : No

Text #5
ID : 7
Format : PGS
Muxing mode : zlib
Codec ID : S_HDMV/PGS
Codec ID/Info : Picture based subtitle format used on BDs/HD-DVDs
Duration : 56 min 10 s
Bit rate : 29.4 kb/s
Frame rate : 0.512 FPS
Count of elements : 1724
Stream size : 11.8 MiB (0%)
Title : Chinese (Simplified)
Language : Chinese
Default : No
Forced : No

Text #6
ID : 8
Format : PGS
Muxing mode : zlib
Codec ID : S_HDMV/PGS
Codec ID/Info : Picture based subtitle format used on BDs/HD-DVDs
Duration : 56 min 10 s
Bit rate : 37.0 kb/s
Frame rate : 0.517 FPS
Count of elements : 1744
Stream size : 14.9 MiB (0%)
Title : Chinese (Traditional)
Language : Chinese
Default : No
Forced : No

Text #7
ID : 9
Format : PGS
Muxing mode : zlib
Codec ID : S_HDMV/PGS
Codec ID/Info : Picture based subtitle format used on BDs/HD-DVDs
Duration : 56 min 10 s
Bit rate : 36.2 kb/s
Frame rate : 0.497 FPS
Count of elements : 1676
Stream size : 14.5 MiB (0%)
Title : Czech
Language : Czech
Default : No
Forced : No

Text #8
ID : 10
Format : PGS
Muxing mode : zlib
Codec ID : S_HDMV/PGS
Codec ID/Info : Picture based subtitle format used on BDs/HD-DVDs
Duration : 56 min 10 s
Bit rate : 34.2 kb/s
Frame rate : 0.425 FPS
Count of elements : 1432
Stream size : 13.7 MiB (0%)
Title : Danish
Language : Danish
Default : No
Forced : No

Text #9
ID : 11
Format : PGS
Muxing mode : zlib
Codec ID : S_HDMV/PGS
Codec ID/Info : Picture based subtitle format used on BDs/HD-DVDs
Duration : 56 min 10 s
Bit rate : 35.7 kb/s
Frame rate : 0.378 FPS
Count of elements : 1274
Stream size : 14.3 MiB (0%)
Title : Dutch
Language : Dutch
Default : No
Forced : No

Text #10
ID : 12
Format : PGS
Muxing mode : zlib
Codec ID : S_HDMV/PGS
Codec ID/Info : Picture based subtitle format used on BDs/HD-DVDs
Duration : 56 min 34 s
Bit rate : 35.5 kb/s
Frame rate : 0.401 FPS
Count of elements : 1362
Stream size : 14.4 MiB (0%)
Title : Finnish
Language : Finnish
Default : No
Forced : No

Text #11
ID : 13
Format : PGS
Muxing mode : zlib
Codec ID : S_HDMV/PGS
Codec ID/Info : Picture based subtitle format used on BDs/HD-DVDs
Duration : 56 min 10 s
Bit rate : 35.7 kb/s
Frame rate : 0.428 FPS
Count of elements : 1442
Stream size : 14.4 MiB (0%)
Title : French
Language : French
Default : No
Forced : No

Text #12
ID : 14
Format : PGS
Muxing mode : zlib
Codec ID : S_HDMV/PGS
Codec ID/Info : Picture based subtitle format used on BDs/HD-DVDs
Duration : 56 min 10 s
Bit rate : 38.5 kb/s
Frame rate : 0.419 FPS
Count of elements : 1412
Stream size : 15.5 MiB (0%)
Title : German
Language : German
Default : No
Forced : No

Text #13
ID : 15
Format : PGS
Muxing mode : zlib
Codec ID : S_HDMV/PGS
Codec ID/Info : Picture based subtitle format used on BDs/HD-DVDs
Duration : 56 min 10 s
Bit rate : 38.4 kb/s
Frame rate : 0.498 FPS
Count of elements : 1680
Stream size : 15.4 MiB (0%)
Title : Greek
Language : Greek
Default : No
Forced : No

Text #14
ID : 16
Format : PGS
Muxing mode : zlib
Codec ID : S_HDMV/PGS
Codec ID/Info : Picture based subtitle format used on BDs/HD-DVDs
Duration : 56 min 10 s
Bit rate : 27.9 kb/s
Frame rate : 0.488 FPS
Count of elements : 1644
Stream size : 11.2 MiB (0%)
Title : Hebrew
Language : Hebrew
Default : No
Forced : No

Text #15
ID : 17
Format : PGS
Muxing mode : zlib
Codec ID : S_HDMV/PGS
Codec ID/Info : Picture based subtitle format used on BDs/HD-DVDs
Duration : 56 min 10 s
Bit rate : 36.1 kb/s
Frame rate : 0.406 FPS
Count of elements : 1368
Stream size : 14.5 MiB (0%)
Title : Hungarian
Language : Hungarian
Default : No
Forced : No

Text #16
ID : 18
Format : PGS
Muxing mode : zlib
Codec ID : S_HDMV/PGS
Codec ID/Info : Picture based subtitle format used on BDs/HD-DVDs
Duration : 56 min 10 s
Bit rate : 39.3 kb/s
Frame rate : 0.485 FPS
Count of elements : 1636
Stream size : 15.8 MiB (0%)
Title : Indonesian
Language : Indonesian
Default : No
Forced : No

Text #17
ID : 19
Format : PGS
Muxing mode : zlib
Codec ID : S_HDMV/PGS
Codec ID/Info : Picture based subtitle format used on BDs/HD-DVDs
Duration : 56 min 34 s
Bit rate : 36.9 kb/s
Frame rate : 0.427 FPS
Count of elements : 1448
Stream size : 14.9 MiB (0%)
Title : Italian
Language : Italian
Default : No
Forced : No

Text #18
ID : 20
Format : PGS
Muxing mode : zlib
Codec ID : S_HDMV/PGS
Codec ID/Info : Picture based subtitle format used on BDs/HD-DVDs
Duration : 56 min 10 s
Bit rate : 28.1 kb/s
Frame rate : 0.474 FPS
Count of elements : 1598
Stream size : 11.3 MiB (0%)
Title : Japanese
Language : Japanese
Default : No
Forced : No

Text #19
ID : 21
Format : PGS
Muxing mode : zlib
Codec ID : S_HDMV/PGS
Codec ID/Info : Picture based subtitle format used on BDs/HD-DVDs
Duration : 56 min 10 s
Bit rate : 29.4 kb/s
Frame rate : 0.512 FPS
Count of elements : 1724
Stream size : 11.8 MiB (0%)
Title : Korean
Language : Korean
Default : No
Forced : No

Text #20
ID : 22
Format : PGS
Muxing mode : zlib
Codec ID : S_HDMV/PGS
Codec ID/Info : Picture based subtitle format used on BDs/HD-DVDs
Duration : 56 min 34 s
Bit rate : 32.0 kb/s
Frame rate : 0.421 FPS
Count of elements : 1430
Stream size : 12.9 MiB (0%)
Title : Norwegian
Language : Norwegian
Default : No
Forced : No

Text #21
ID : 23
Format : PGS
Muxing mode : zlib
Codec ID : S_HDMV/PGS
Codec ID/Info : Picture based subtitle format used on BDs/HD-DVDs
Duration : 56 min 10 s
Bit rate : 34.9 kb/s
Frame rate : 0.442 FPS
Count of elements : 1490
Stream size : 14.0 MiB (0%)
Title : Polish
Language : Polish
Default : No
Forced : No

Text #22
ID : 24
Format : PGS
Muxing mode : zlib
Codec ID : S_HDMV/PGS
Codec ID/Info : Picture based subtitle format used on BDs/HD-DVDs
Duration : 56 min 34 s
Bit rate : 38.0 kb/s
Frame rate : 0.424 FPS
Count of elements : 1438
Stream size : 15.4 MiB (0%)
Title : Portuguese (Brazilian)
Language : Portuguese
Default : No
Forced : No

Text #23
ID : 25
Format : PGS
Muxing mode : zlib
Codec ID : S_HDMV/PGS
Codec ID/Info : Picture based subtitle format used on BDs/HD-DVDs
Duration : 56 min 34 s
Bit rate : 39.0 kb/s
Frame rate : 0.424 FPS
Count of elements : 1440
Stream size : 15.8 MiB (0%)
Title : Portuguese (Iberian)
Language : Portuguese
Default : No
Forced : No

Text #24
ID : 26
Format : PGS
Muxing mode : zlib
Codec ID : S_HDMV/PGS
Codec ID/Info : Picture based subtitle format used on BDs/HD-DVDs
Duration : 56 min 10 s
Bit rate : 35.0 kb/s
Frame rate : 0.494 FPS
Count of elements : 1664
Stream size : 14.0 MiB (0%)
Title : Romanian
Language : Romanian
Default : No
Forced : No

Text #25
ID : 27
Format : PGS
Muxing mode : zlib
Codec ID : S_HDMV/PGS
Codec ID/Info : Picture based subtitle format used on BDs/HD-DVDs
Duration : 56 min 10 s
Bit rate : 37.0 kb/s
Frame rate : 0.497 FPS
Count of elements : 1674
Stream size : 14.9 MiB (0%)
Title : Russian
Language : Russian
Default : No
Forced : No

Text #26
ID : 28
Format : PGS
Muxing mode : zlib
Codec ID : S_HDMV/PGS
Codec ID/Info : Picture based subtitle format used on BDs/HD-DVDs
Duration : 56 min 10 s
Bit rate : 45.7 kb/s
Frame rate : 0.506 FPS
Count of elements : 1704
Stream size : 18.4 MiB (0%)
Title : Spanish (Castilian)
Language : Spanish
Default : No
Forced : No

Text #27
ID : 29
Format : PGS
Muxing mode : zlib
Codec ID : S_HDMV/PGS
Codec ID/Info : Picture based subtitle format used on BDs/HD-DVDs
Duration : 56 min 10 s
Bit rate : 42.7 kb/s
Frame rate : 0.501 FPS
Count of elements : 1690
Stream size : 17.1 MiB (0%)
Title : Spanish (Latin American)
Language : Spanish
Default : No
Forced : No

Text #28
ID : 30
Format : PGS
Muxing mode : zlib
Codec ID : S_HDMV/PGS
Codec ID/Info : Picture based subtitle format used on BDs/HD-DVDs
Duration : 56 min 10 s
Bit rate : 37.0 kb/s
Frame rate : 0.468 FPS
Count of elements : 1576
Stream size : 14.9 MiB (0%)
Title : Swedish
Language : Swedish
Default : No
Forced : No

Text #29
ID : 31
Format : PGS
Muxing mode : zlib
Codec ID : S_HDMV/PGS
Codec ID/Info : Picture based subtitle format used on BDs/HD-DVDs
Duration : 56 min 10 s
Bit rate : 32.7 kb/s
Frame rate : 0.512 FPS
Count of elements : 1726
Stream size : 13.1 MiB (0%)
Title : Thai
Language : Thai
Default : No
Forced : No

Text #30
ID : 32
Format : PGS
Muxing mode : zlib
Codec ID : S_HDMV/PGS
Codec ID/Info : Picture based subtitle format used on BDs/HD-DVDs
Duration : 56 min 10 s
Bit rate : 42.5 kb/s
Frame rate : 0.512 FPS
Count of elements : 1726
Stream size : 17.1 MiB (0%)
Title : Turkish
Language : Turkish
Default : No
Forced : No

Text #31
ID : 33
Format : PGS
Muxing mode : zlib
Codec ID : S_HDMV/PGS
Codec ID/Info : Picture based subtitle format used on BDs/HD-DVDs
Duration : 56 min 10 s
Bit rate : 42.3 kb/s
Frame rate : 0.513 FPS
Count of elements : 1728
Stream size : 17.0 MiB (0%)
Title : Vietnamese
Language : Vietnamese
Default : No
Forced : No

Menu
00:00:00.000 : en:Chapter 1
00:02:20.807 : en:Chapter 2
00:15:19.961 : en:Chapter 3
00:24:35.557 : en:Chapter 4
00:40:42.565 : en:Chapter 5
00:56:41.773 : en:Chapter 6


Source Information
Narcos.Mexico.S01.BluRay.1080p.DTS-HD.MA.5.1.AVC.REMUX-FraMeSToR (96.83 GB) (Thanks!)
Code: General
Unique ID : 51001813506894040204763993989402528160 (0x265E978C55DBE48A31A5B8F2878F09A0)
Complete name : Narcos.Mexico.S01E01.Camelot.1080p.DTS-HD.MA.5.1.AVC.REMUX-FraMeSToR.mkv
Format : Matroska
Format version : Version 4
File size : 9.24 GiB
Duration : 57 min 37 s
Overall bit rate mode : Variable
Overall bit rate : 23.0 Mb/s
Frame rate : 23.976 FPS
Movie name : Narcos: Mexico (S01E01) Camelot
Encoded date : 2020-08-24 15:27:41 UTC
Writing application : mkvmerge v49.0.0 ('Sick Of Losing Soulmates') 64-bit
Writing library : libebml v1.4.0 + libmatroska v1.6.1
IMDB : tt8714904
TMDB : tv/80968
TVDB : 353232

Video
ID : 1
Format : AVC
Format/Info : Advanced Video Codec
Format profile : Progressive [email protected]
Format settings : CABAC / 3 Ref Frames
Format settings, CABAC : Yes
Format settings, Reference : 3 frames
Codec ID : V_MPEG4/ISO/AVC
Duration : 57 min 37 s
Bit rate mode : Variable
Bit rate : 20.0 Mb/s
Maximum bit rate : 35.0 Mb/s
Width : 1 920 pixels
Height : 1 080 pixels
Display aspect ratio : 16:9
Frame rate mode : Constant
Frame rate : 23.976 (24000/1001) FPS
Color space : YUV
Chroma subsampling : 4:2:0
Bit depth : 8 bits
Scan type : Progressive
Bits/(Pixel*Frame) : 0.401
Stream size : 8.03 GiB (87%)
Default : Yes
Forced : No

Audio
ID : 2
Format : DTS XLL
Format/Info : Digital Theater Systems
Commercial name : DTS-HD Master Audio
Codec ID : A_DTS
Duration : 57 min 37 s
Bit rate mode : Variable
Bit rate : 1 918 kb/s
Channel(s) : 6 channels
Channel layout : C L R Ls Rs LFE
Sampling rate : 48.0 kHz
Frame rate : 93.750 FPS (512 SPF)
Bit depth : 16 bits
Compression mode : Lossless
Stream size : 791 MiB (8%)
Title : DTS-HD MA 5.1
Language : English
Default : Yes
Forced : No

Text #1
ID : 3
Format : PGS
Codec ID : S_HDMV/PGS
Codec ID/Info : Picture based subtitle format used on BDs/HD-DVDs
Duration : 51 min 1 s
Bit rate : 24.4 kb/s
Frame rate : 0.287 FPS
Count of elements : 878
Stream size : 8.91 MiB (0%)
Title : English (Forced)
Language : English
Default : Yes
Forced : Yes

Text #2
ID : 4
Format : PGS
Codec ID : S_HDMV/PGS
Codec ID/Info : Picture based subtitle format used on BDs/HD-DVDs
Duration : 55 min 58 s
Bit rate : 41.6 kb/s
Frame rate : 0.441 FPS
Count of elements : 1480
Stream size : 16.7 MiB (0%)
Title : English
Language : English
Default : No
Forced : No

Text #3
ID : 5
Format : PGS
Codec ID : S_HDMV/PGS
Codec ID/Info : Picture based subtitle format used on BDs/HD-DVDs
Duration : 55 min 58 s
Bit rate : 45.7 kb/s
Frame rate : 0.485 FPS
Count of elements : 1630
Stream size : 18.3 MiB (0%)
Title : English (SDH)
Language : English
Default : No
Forced : No

Text #4
ID : 6
Format : PGS
Codec ID : S_HDMV/PGS
Codec ID/Info : Picture based subtitle format used on BDs/HD-DVDs
Duration : 56 min 10 s
Bit rate : 20.8 kb/s
Frame rate : 0.508 FPS
Count of elements : 1712
Stream size : 8.35 MiB (0%)
Title : Arabic
Language : Arabic
Default : No
Forced : No

Text #5
ID : 7
Format : PGS
Codec ID : S_HDMV/PGS
Codec ID/Info : Picture based subtitle format used on BDs/HD-DVDs
Duration : 56 min 10 s
Bit rate : 29.4 kb/s
Frame rate : 0.512 FPS
Count of elements : 1724
Stream size : 11.8 MiB (0%)
Title : Chinese (Simplified)
Language : Chinese
Default : No
Forced : No

Text #6
ID : 8
Format : PGS
Codec ID : S_HDMV/PGS
Codec ID/Info : Picture based subtitle format used on BDs/HD-DVDs
Duration : 56 min 10 s
Bit rate : 37.0 kb/s
Frame rate : 0.517 FPS
Count of elements : 1744
Stream size : 14.9 MiB (0%)
Title : Chinese (Traditional)
Language : Chinese
Default : No
Forced : No

Text #7
ID : 9
Format : PGS
Codec ID : S_HDMV/PGS
Codec ID/Info : Picture based subtitle format used on BDs/HD-DVDs
Duration : 56 min 10 s
Bit rate : 36.2 kb/s
Frame rate : 0.497 FPS
Count of elements : 1676
Stream size : 14.5 MiB (0%)
Title : Czech
Language : Czech
Default : No
Forced : No

Text #8
ID : 10
Format : PGS
Codec ID : S_HDMV/PGS
Codec ID/Info : Picture based subtitle format used on BDs/HD-DVDs
Duration : 56 min 10 s
Bit rate : 34.2 kb/s
Frame rate : 0.425 FPS
Count of elements : 1432
Stream size : 13.7 MiB (0%)
Title : Danish
Language : Danish
Default : No
Forced : No

Text #9
ID : 11
Format : PGS
Codec ID : S_HDMV/PGS
Codec ID/Info : Picture based subtitle format used on BDs/HD-DVDs
Duration : 56 min 10 s
Bit rate : 35.7 kb/s
Frame rate : 0.378 FPS
Count of elements : 1274
Stream size : 14.3 MiB (0%)
Title : Dutch
Language : Dutch
Default : No
Forced : No

Text #10
ID : 12
Format : PGS
Codec ID : S_HDMV/PGS
Codec ID/Info : Picture based subtitle format used on BDs/HD-DVDs
Duration : 56 min 34 s
Bit rate : 35.5 kb/s
Frame rate : 0.401 FPS
Count of elements : 1362
Stream size : 14.4 MiB (0%)
Title : Finnish
Language : Finnish
Default : No
Forced : No

Text #11
ID : 13
Format : PGS
Codec ID : S_HDMV/PGS
Codec ID/Info : Picture based subtitle format used on BDs/HD-DVDs
Duration : 56 min 10 s
Bit rate : 35.7 kb/s
Frame rate : 0.428 FPS
Count of elements : 1442
Stream size : 14.4 MiB (0%)
Title : French
Language : French
Default : No
Forced : No

Text #12
ID : 14
Format : PGS
Codec ID : S_HDMV/PGS
Codec ID/Info : Picture based subtitle format used on BDs/HD-DVDs
Duration : 56 min 10 s
Bit rate : 38.5 kb/s
Frame rate : 0.419 FPS
Count of elements : 1412
Stream size : 15.5 MiB (0%)
Title : German
Language : German
Default : No
Forced : No

Text #13
ID : 15
Format : PGS
Codec ID : S_HDMV/PGS
Codec ID/Info : Picture based subtitle format used on BDs/HD-DVDs
Duration : 56 min 10 s
Bit rate : 38.4 kb/s
Frame rate : 0.498 FPS
Count of elements : 1680
Stream size : 15.4 MiB (0%)
Title : Greek
Language : Greek
Default : No
Forced : No

Text #14
ID : 16
Format : PGS
Codec ID : S_HDMV/PGS
Codec ID/Info : Picture based subtitle format used on BDs/HD-DVDs
Duration : 56 min 10 s
Bit rate : 27.9 kb/s
Frame rate : 0.488 FPS
Count of elements : 1644
Stream size : 11.2 MiB (0%)
Title : Hebrew
Language : Hebrew
Default : No
Forced : No

Text #15
ID : 17
Format : PGS
Codec ID : S_HDMV/PGS
Codec ID/Info : Picture based subtitle format used on BDs/HD-DVDs
Duration : 56 min 10 s
Bit rate : 36.1 kb/s
Frame rate : 0.406 FPS
Count of elements : 1368
Stream size : 14.5 MiB (0%)
Title : Hungarian
Language : Hungarian
Default : No
Forced : No

Text #16
ID : 18
Format : PGS
Codec ID : S_HDMV/PGS
Codec ID/Info : Picture based subtitle format used on BDs/HD-DVDs
Duration : 56 min 10 s
Bit rate : 39.3 kb/s
Frame rate : 0.485 FPS
Count of elements : 1636
Stream size : 15.8 MiB (0%)
Title : Indonesian
Language : Indonesian
Default : No
Forced : No

Text #17
ID : 19
Format : PGS
Codec ID : S_HDMV/PGS
Codec ID/Info : Picture based subtitle format used on BDs/HD-DVDs
Duration : 56 min 34 s
Bit rate : 36.9 kb/s
Frame rate : 0.427 FPS
Count of elements : 1448
Stream size : 14.9 MiB (0%)
Title : Italian
Language : Italian
Default : No
Forced : No

Text #18
ID : 20
Format : PGS
Codec ID : S_HDMV/PGS
Codec ID/Info : Picture based subtitle format used on BDs/HD-DVDs
Duration : 56 min 10 s
Bit rate : 28.1 kb/s
Frame rate : 0.474 FPS
Count of elements : 1598
Stream size : 11.3 MiB (0%)
Title : Japanese
Language : Japanese
Default : No
Forced : No

Text #19
ID : 21
Format : PGS
Codec ID : S_HDMV/PGS
Codec ID/Info : Picture based subtitle format used on BDs/HD-DVDs
Duration : 56 min 10 s
Bit rate : 29.4 kb/s
Frame rate : 0.512 FPS
Count of elements : 1724
Stream size : 11.8 MiB (0%)
Title : Korean
Language : Korean
Default : No
Forced : No

Text #20
ID : 22
Format : PGS
Codec ID : S_HDMV/PGS
Codec ID/Info : Picture based subtitle format used on BDs/HD-DVDs
Duration : 56 min 34 s
Bit rate : 32.0 kb/s
Frame rate : 0.421 FPS
Count of elements : 1430
Stream size : 12.9 MiB (0%)
Title : Norwegian
Language : Norwegian
Default : No
Forced : No

Text #21
ID : 23
Format : PGS
Codec ID : S_HDMV/PGS
Codec ID/Info : Picture based subtitle format used on BDs/HD-DVDs
Duration : 56 min 10 s
Bit rate : 34.9 kb/s
Frame rate : 0.442 FPS
Count of elements : 1490
Stream size : 14.0 MiB (0%)
Title : Polish
Language : Polish
Default : No
Forced : No

Text #22
ID : 24
Format : PGS
Codec ID : S_HDMV/PGS
Codec ID/Info : Picture based subtitle format used on BDs/HD-DVDs
Duration : 56 min 34 s
Bit rate : 38.0 kb/s
Frame rate : 0.424 FPS
Count of elements : 1438
Stream size : 15.4 MiB (0%)
Title : Portuguese (Brazilian)
Language : Portuguese
Default : No
Forced : No

Text #23
ID : 25
Format : PGS
Codec ID : S_HDMV/PGS
Codec ID/Info : Picture based subtitle format used on BDs/HD-DVDs
Duration : 56 min 34 s
Bit rate : 39.0 kb/s
Frame rate : 0.424 FPS
Count of elements : 1440
Stream size : 15.8 MiB (0%)
Title : Portuguese (Iberian)
Language : Portuguese
Default : No
Forced : No

Text #24
ID : 26
Format : PGS
Codec ID : S_HDMV/PGS
Codec ID/Info : Picture based subtitle format used on BDs/HD-DVDs
Duration : 56 min 10 s
Bit rate : 35.0 kb/s
Frame rate : 0.494 FPS
Count of elements : 1664
Stream size : 14.0 MiB (0%)
Title : Romanian
Language : Romanian
Default : No
Forced : No

Text #25
ID : 27
Format : PGS
Codec ID : S_HDMV/PGS
Codec ID/Info : Picture based subtitle format used on BDs/HD-DVDs
Duration : 56 min 10 s
Bit rate : 37.0 kb/s
Frame rate : 0.497 FPS
Count of elements : 1674
Stream size : 14.9 MiB (0%)
Title : Russian
Language : Russian
Default : No
Forced : No

Text #26
ID : 28
Format : PGS
Codec ID : S_HDMV/PGS
Codec ID/Info : Picture based subtitle format used on BDs/HD-DVDs
Duration : 56 min 10 s
Bit rate : 45.7 kb/s
Frame rate : 0.506 FPS
Count of elements : 1704
Stream size : 18.4 MiB (0%)
Title : Spanish (Castilian)
Language : Spanish
Default : No
Forced : No

Text #27
ID : 29
Format : PGS
Codec ID : S_HDMV/PGS
Codec ID/Info : Picture based subtitle format used on BDs/HD-DVDs
Duration : 56 min 10 s
Bit rate : 42.7 kb/s
Frame rate : 0.501 FPS
Count of elements : 1690
Stream size : 17.1 MiB (0%)
Title : Spanish (Latin American)
Language : Spanish
Default : No
Forced : No

Text #28
ID : 30
Format : PGS
Codec ID : S_HDMV/PGS
Codec ID/Info : Picture based subtitle format used on BDs/HD-DVDs
Duration : 56 min 10 s
Bit rate : 37.0 kb/s
Frame rate : 0.468 FPS
Count of elements : 1576
Stream size : 14.9 MiB (0%)
Title : Swedish
Language : Swedish
Default : No
Forced : No

Text #29
ID : 31
Format : PGS
Codec ID : S_HDMV/PGS
Codec ID/Info : Picture based subtitle format used on BDs/HD-DVDs
Duration : 56 min 10 s
Bit rate : 32.7 kb/s
Frame rate : 0.512 FPS
Count of elements : 1726
Stream size : 13.1 MiB (0%)
Title : Thai
Language : Thai
Default : No
Forced : No

Text #30
ID : 32
Format : PGS
Codec ID : S_HDMV/PGS
Codec ID/Info : Picture based subtitle format used on BDs/HD-DVDs
Duration : 56 min 10 s
Bit rate : 42.5 kb/s
Frame rate : 0.512 FPS
Count of elements : 1726
Stream size : 17.1 MiB (0%)
Title : Turkish
Language : Turkish
Default : No
Forced : No

Text #31
ID : 33
Format : PGS
Codec ID : S_HDMV/PGS
Codec ID/Info : Picture based subtitle format used on BDs/HD-DVDs
Duration : 56 min 10 s
Bit rate : 42.3 kb/s
Frame rate : 0.513 FPS
Count of elements : 1728
Stream size : 17.0 MiB (0%)
Title : Vietnamese
Language : Vietnamese
Default : No
Forced : No

Menu
00:00:00.000 : en:Chapter 1
00:02:20.807 : en:Chapter 2
00:15:19.961 : en:Chapter 3
00:24:35.557 : en:Chapter 4
00:40:42.565 : en:Chapter 5
00:56:41.773 : en:Chapter 6


We have no issue with individuals posting or re-uploading our torrents on a platform we aren't on. However, if this is something you'd like to do, please do so in a 'as-is' format. We ask that you do not create a new torrent, include all descriptions you see above including the SEV logo, tags, notes and screenshots. If you'd like to become a permanent poster on a website we don't post to, feel free to get in contact with a Sublime Encoded Video member.

We are recruiting/training new members for SEV & seedbox providers as well as people to help out with subtitles.
As you already know, we deliver quality, so you know the standard.
If you're interested, feel free to contact any of the team members.


Narcos - Mexico - Season 01 [2018] 1080p BDRip x265 DTS-HD MA 5.1 Kira [SEV]