PXT24

PXT24

Narcos : Mexico - Season 03 S03 [2021] 1080p BDRip x265 DTS-HD MA 5.1 Kira [SEV]
  • Category
    : TV
  • Type
    : HEVC/x265
  • Language
    : English
  • Total size
    : 43.40 GB
  • Date uploaded
    : 04 May ,2024

SEV-logo

Source vs Encode :- Link

Screenshot's
DWVhmSAP_t zqUvmdLE_t yu30oddl_t XxihRKuT_t sVEEFAOY_t qKE4Qb6H_t ovahilGX_t nxPLN1KB_t fsqnVKa1_t


Media Information
Code: General
Unique ID : 158514863166190935382683097443693241459 (0x7740DA272C192E8D982765C30DE82473)
Complete name : Narcos - Mexico - S03.E01 - 12 Steps 1080p BDRip x265 DTS-HD MA 5.1 Kira [SEV].mkv
Format : Matroska
Format version : Version 4
File size : 3.66 GiB
Duration : 59 min 21 s
Overall bit rate mode : Variable
Overall bit rate : 8 821 kb/s
Frame rate : 23.976 FPS
Movie name : | Narcos : Mexico : S03.E01 : 12 Steps | 1080p | BDRip | x265 | DTS:HD MA 5.1 @ 1990 Kbps | Kira [SEV] |
Encoded date : 2024-04-12 10:48:33 UTC
Writing application : mkvmerge v83.0 ('Circle Of Friends') 64-bit
Writing library : libebml v1.4.5 + libmatroska v1.7.1

Video
ID : 1
Format : HEVC
Format/Info : High Efficiency Video Coding
Format profile : Main 10@L4@Main
Codec ID : V_MPEGH/ISO/HEVC
Duration : 59 min 21 s
Bit rate : 6 795 kb/s
Width : 1 920 pixels
Height : 1 080 pixels
Display aspect ratio : 16:9
Frame rate mode : Constant
Frame rate : 23.976 (24000/1001) FPS
Color space : YUV
Chroma subsampling : 4:2:0
Bit depth : 10 bits
Bits/(Pixel*Frame) : 0.137
Stream size : 2.82 GiB (77%)
Title : | Narcos : Mexico : S03.E01 : 12 Steps | 1080p | BDRip | x265 | DTS:HD MA 5.1 @ 1990 Kbps | Kira [SEV] |
Writing library : x265 3.5+153+15-fc339385e:[Windows][MSVC 1937][64 bit] 10bit
Encoding settings : cpuid=1111039 / frame-threads=5 / numa-pools=32 / wpp / no-pmode / no-pme / no-psnr / no-ssim / log-level=2 / input-csp=1 / input-res=1920x1080 / interlace=0 / total-frames=42691 / level-idc=0 / high-tier=1 / uhd-bd=0 / ref=5 / no-allow-non-conformance / no-repeat-headers / annexb / no-aud / no-eob / no-eos / no-hrd / info / hash=0 / temporal-layers=0 / open-gop / min-keyint=23 / keyint=250 / gop-lookahead=0 / bframes=16 / b-adapt=2 / b-pyramid / bframe-bias=0 / rc-lookahead=100 / lookahead-slices=0 / scenecut=40 / no-hist-scenecut / radl=0 / no-splice / no-intra-refresh / ctu=64 / min-cu-size=8 / no-rect / no-amp / max-tu-size=32 / tu-inter-depth=4 / tu-intra-depth=4 / limit-tu=4 / rdoq-level=2 / dynamic-rd=0.00 / no-ssim-rd / signhide / no-tskip / nr-intra=0 / nr-inter=0 / no-constrained-intra / no-strong-intra-smoothing / max-merge=5 / limit-refs=0 / limit-modes / me=3 / subme=7 / merange=92 / temporal-mvp / no-frame-dup / no-hme / weightp / weightb / no-analyze-src-pics / deblock=-3:-3 / no-sao / no-sao-non-deblock / rd=4 / selective-sao=0 / no-early-skip / rskip / no-fast-intra / no-tskip-fast / no-cu-lossless / b-intra / no-splitrd-skip / rdpenalty=0 / psy-rd=1.50 / psy-rdoq=1.00 / no-rd-refine / no-lossless / cbqpoffs=0 / crqpoffs=0 / rc=crf / crf=19.0 / qcomp=0.60 / qpstep=4 / stats-write=0 / stats-read=0 / ipratio=1.40 / pbratio=1.30 / aq-mode=3 / aq-strength=1.00 / aq-bias-strength=1.00 / cutree / zone-count=0 / no-strict-cbr / qg-size=32 / no-rc-grain / qpmax=69 / qpmin=0 / no-const-vbv / sar=0 / overscan=0 / videoformat=5 / range=0 / colorprim=2 / transfer=2 / colormatrix=2 / chromaloc=0 / display-window=0 / cll=0,0 / min-luma=0 / max-luma=1023 / log2-max-poc-lsb=8 / vui-timing-info / vui-hrd-info / slices=1 / no-opt-qp-pps / no-opt-ref-list-length-pps / no-multi-pass-opt-rps / scenecut-bias=0.05 / no-opt-cu-delta-qp / no-aq-motion / no-hdr10 / no-hdr10-opt / no-dhdr10-opt / no-idr-recovery-sei / analysis-reuse-level=0 / analysis-save-reuse-level=0 / analysis-load-reuse-level=0 / scale-factor=0 / refine-intra=0 / refine-inter=0 / refine-mv=1 / refine-ctu-distortion=0 / no-limit-sao / ctu-info=0 / no-lowpass-dct / refine-analysis-type=0 / copy-pic=1 / max-ausize-factor=1.0 / no-dynamic-refine / no-single-sei / no-hevc-aq / no-svt / no-field / qp-adaptation-range=1.00 / scenecut-aware-qp=0 / conformance-window-offsets / right=0 / bottom=0 / decoder-max-rate=0 / no-vbv-live-multi-pass / no-mcstf / no-sbrc
Language : English
Default : Yes
Forced : No

Audio
ID : 2
Format : DTS XLL
Format/Info : Digital Theater Systems
Commercial name : DTS-HD Master Audio
Codec ID : A_DTS
Duration : 59 min 21 s
Bit rate mode : Variable
Bit rate : 1 990 kb/s
Channel(s) : 6 channels
Channel layout : C L R Ls Rs LFE
Sampling rate : 48.0 kHz
Frame rate : 93.750 FPS (512 SPF)
Bit depth : 16 bits
Compression mode : Lossless
Stream size : 845 MiB (23%)
Title : English BD DTS:HD MA 5.1 @ 1990 Kbps
Language : English
Default : Yes
Forced : No

Text #1
ID : 3
Format : PGS
Muxing mode : zlib
Codec ID : S_HDMV/PGS
Codec ID/Info : Picture based subtitle format used on BDs/HD-DVDs
Duration : 57 min 23 s
Bit rate : 12.9 kb/s
Frame rate : 0.186 FPS
Count of elements : 640
Stream size : 5.28 MiB (0%)
Title : English (Forced) BD PGS Sub
Language : English
Default : No
Forced : No

Text #2
ID : 4
Format : PGS
Muxing mode : zlib
Codec ID : S_HDMV/PGS
Codec ID/Info : Picture based subtitle format used on BDs/HD-DVDs
Duration : 59 min 7 s
Bit rate : 29.1 kb/s
Frame rate : 0.364 FPS
Count of elements : 1292
Stream size : 12.3 MiB (0%)
Title : German (Full) BD PGS Sub
Language : German
Default : No
Forced : No

Text #3
ID : 5
Format : PGS
Muxing mode : zlib
Codec ID : S_HDMV/PGS
Codec ID/Info : Picture based subtitle format used on BDs/HD-DVDs
Duration : 59 min 7 s
Bit rate : 13.2 kb/s
Frame rate : 0.185 FPS
Count of elements : 656
Stream size : 5.57 MiB (0%)
Title : German (Forced) BD PGS Sub
Language : German
Default : No
Forced : No

Text #4
ID : 6
Format : UTF-8
Codec ID : S_TEXT/UTF8
Codec ID/Info : UTF-8 Plain Text
Duration : 57 min 41 s
Bit rate : 56 b/s
Frame rate : 0.209 FPS
Count of elements : 724
Stream size : 23.9 KiB (0%)
Title : English SDH SRT
Language : English
Default : No
Forced : No

Text #5
ID : 7
Format : UTF-8
Codec ID : S_TEXT/UTF8
Codec ID/Info : UTF-8 Plain Text
Duration : 57 min 23 s
Bit rate : 49 b/s
Frame rate : 0.188 FPS
Count of elements : 649
Stream size : 20.9 KiB (0%)
Title : English SRT
Language : English
Default : Yes
Forced : No

Text #6
ID : 8
Format : UTF-8
Codec ID : S_TEXT/UTF8
Codec ID/Info : UTF-8 Plain Text
Duration : 57 min 23 s
Bit rate : 20 b/s
Frame rate : 0.093 FPS
Count of elements : 320
Stream size : 8.42 KiB (0%)
Title : English (Forced) SRT
Language : English
Default : No
Forced : No

Text #7
ID : 9
Format : UTF-8
Codec ID : S_TEXT/UTF8
Codec ID/Info : UTF-8 Plain Text
Duration : 59 min 7 s
Bit rate : 81 b/s
Frame rate : 0.183 FPS
Count of elements : 651
Stream size : 35.2 KiB (0%)
Language : Arabic
Default : No
Forced : No

Text #8
ID : 10
Format : UTF-8
Codec ID : S_TEXT/UTF8
Codec ID/Info : UTF-8 Plain Text
Duration : 59 min 7 s
Bit rate : 45 b/s
Frame rate : 0.183 FPS
Count of elements : 648
Stream size : 19.7 KiB (0%)
Language : Czech
Default : No
Forced : No

Text #9
ID : 11
Format : UTF-8
Codec ID : S_TEXT/UTF8
Codec ID/Info : UTF-8 Plain Text
Duration : 59 min 7 s
Bit rate : 44 b/s
Frame rate : 0.182 FPS
Count of elements : 646
Stream size : 19.3 KiB (0%)
Language : Danish
Default : No
Forced : No

Text #10
ID : 12
Format : UTF-8
Codec ID : S_TEXT/UTF8
Codec ID/Info : UTF-8 Plain Text
Duration : 59 min 7 s
Bit rate : 45 b/s
Frame rate : 0.182 FPS
Count of elements : 646
Stream size : 19.7 KiB (0%)
Language : German
Default : No
Forced : No

Text #11
ID : 13
Format : UTF-8
Codec ID : S_TEXT/UTF8
Codec ID/Info : UTF-8 Plain Text
Duration : 59 min 7 s
Bit rate : 76 b/s
Frame rate : 0.183 FPS
Count of elements : 651
Stream size : 33.3 KiB (0%)
Language : Greek
Default : No
Forced : No

Text #12
ID : 14
Format : UTF-8
Codec ID : S_TEXT/UTF8
Codec ID/Info : UTF-8 Plain Text
Duration : 59 min 7 s
Bit rate : 26 b/s
Frame rate : 0.092 FPS
Count of elements : 328
Stream size : 11.6 KiB (0%)
Language : Spanish
Default : No
Forced : No

Text #13
ID : 15
Format : UTF-8
Codec ID : S_TEXT/UTF8
Codec ID/Info : UTF-8 Plain Text
Duration : 59 min 7 s
Bit rate : 43 b/s
Frame rate : 0.182 FPS
Count of elements : 647
Stream size : 18.8 KiB (0%)
Language : Finnish
Default : No
Forced : No

Text #14
ID : 16
Format : UTF-8
Codec ID : S_TEXT/UTF8
Codec ID/Info : UTF-8 Plain Text
Duration : 59 min 7 s
Bit rate : 47 b/s
Frame rate : 0.206 FPS
Count of elements : 730
Stream size : 20.8 KiB (0%)
Language : French
Default : No
Forced : No

Text #15
ID : 17
Format : UTF-8
Codec ID : S_TEXT/UTF8
Codec ID/Info : UTF-8 Plain Text
Duration : 59 min 7 s
Bit rate : 74 b/s
Frame rate : 0.183 FPS
Count of elements : 651
Stream size : 32.3 KiB (0%)
Language : Hebrew
Default : No
Forced : No

Text #16
ID : 18
Format : UTF-8
Codec ID : S_TEXT/UTF8
Codec ID/Info : UTF-8 Plain Text
Duration : 59 min 7 s
Bit rate : 42 b/s
Frame rate : 0.182 FPS
Count of elements : 647
Stream size : 18.4 KiB (0%)
Language : Croatian
Default : No
Forced : No

Text #17
ID : 19
Format : UTF-8
Codec ID : S_TEXT/UTF8
Codec ID/Info : UTF-8 Plain Text
Duration : 59 min 7 s
Bit rate : 46 b/s
Frame rate : 0.181 FPS
Count of elements : 643
Stream size : 20.0 KiB (0%)
Language : Hungarian
Default : No
Forced : No

Text #18
ID : 20
Format : UTF-8
Codec ID : S_TEXT/UTF8
Codec ID/Info : UTF-8 Plain Text
Duration : 59 min 7 s
Bit rate : 43 b/s
Frame rate : 0.183 FPS
Count of elements : 648
Stream size : 18.9 KiB (0%)
Language : Indonesian
Default : No
Forced : No

Text #19
ID : 21
Format : UTF-8
Codec ID : S_TEXT/UTF8
Codec ID/Info : UTF-8 Plain Text
Duration : 59 min 7 s
Bit rate : 45 b/s
Frame rate : 0.183 FPS
Count of elements : 648
Stream size : 19.6 KiB (0%)
Language : Italian
Default : No
Forced : No

Text #20
ID : 22
Format : UTF-8
Codec ID : S_TEXT/UTF8
Codec ID/Info : UTF-8 Plain Text
Duration : 59 min 7 s
Bit rate : 45 b/s
Frame rate : 0.176 FPS
Count of elements : 624
Stream size : 19.8 KiB (0%)
Language : Japanese
Default : No
Forced : No

Text #21
ID : 23
Format : UTF-8
Codec ID : S_TEXT/UTF8
Codec ID/Info : UTF-8 Plain Text
Duration : 59 min 7 s
Bit rate : 55 b/s
Frame rate : 0.184 FPS
Count of elements : 653
Stream size : 23.9 KiB (0%)
Language : Korean
Default : No
Forced : No

Text #22
ID : 24
Format : UTF-8
Codec ID : S_TEXT/UTF8
Codec ID/Info : UTF-8 Plain Text
Duration : 59 min 7 s
Bit rate : 44 b/s
Frame rate : 0.183 FPS
Count of elements : 649
Stream size : 19.3 KiB (0%)
Language : Malay
Default : No
Forced : No

Text #23
ID : 25
Format : UTF-8
Codec ID : S_TEXT/UTF8
Codec ID/Info : UTF-8 Plain Text
Duration : 59 min 7 s
Bit rate : 42 b/s
Frame rate : 0.182 FPS
Count of elements : 647
Stream size : 18.6 KiB (0%)
Language : Norwegian Bokmal
Default : No
Forced : No

Text #24
ID : 26
Format : UTF-8
Codec ID : S_TEXT/UTF8
Codec ID/Info : UTF-8 Plain Text
Duration : 59 min 7 s
Bit rate : 42 b/s
Frame rate : 0.179 FPS
Count of elements : 635
Stream size : 18.4 KiB (0%)
Language : Dutch
Default : No
Forced : No

Text #25
ID : 27
Format : UTF-8
Codec ID : S_TEXT/UTF8
Codec ID/Info : UTF-8 Plain Text
Duration : 59 min 7 s
Bit rate : 38 b/s
Frame rate : 0.182 FPS
Count of elements : 646
Stream size : 16.8 KiB (0%)
Language : Polish
Default : No
Forced : No

Text #26
ID : 28
Format : UTF-8
Codec ID : S_TEXT/UTF8
Codec ID/Info : UTF-8 Plain Text
Duration : 59 min 7 s
Bit rate : 44 b/s
Frame rate : 0.183 FPS
Count of elements : 650
Stream size : 19.4 KiB (0%)
Title : Portuguese (BR)
Language : Portuguese
Default : No
Forced : No

Text #27
ID : 29
Format : UTF-8
Codec ID : S_TEXT/UTF8
Codec ID/Info : UTF-8 Plain Text
Duration : 59 min 7 s
Bit rate : 47 b/s
Frame rate : 0.182 FPS
Count of elements : 646
Stream size : 20.5 KiB (0%)
Title : Portuguese (PT)
Language : Portuguese
Default : No
Forced : No

Text #28
ID : 30
Format : UTF-8
Codec ID : S_TEXT/UTF8
Codec ID/Info : UTF-8 Plain Text
Duration : 59 min 7 s
Bit rate : 52 b/s
Frame rate : 0.183 FPS
Count of elements : 648
Stream size : 22.8 KiB (0%)
Language : Romanian
Default : No
Forced : No

Text #29
ID : 31
Format : UTF-8
Codec ID : S_TEXT/UTF8
Codec ID/Info : UTF-8 Plain Text
Duration : 59 min 7 s
Bit rate : 76 b/s
Frame rate : 0.184 FPS
Count of elements : 653
Stream size : 33.3 KiB (0%)
Language : Russian
Default : No
Forced : No

Text #30
ID : 32
Format : UTF-8
Codec ID : S_TEXT/UTF8
Codec ID/Info : UTF-8 Plain Text
Duration : 59 min 7 s
Bit rate : 41 b/s
Frame rate : 0.181 FPS
Count of elements : 643
Stream size : 17.8 KiB (0%)
Language : Swedish
Default : No
Forced : No

Text #31
ID : 33
Format : UTF-8
Codec ID : S_TEXT/UTF8
Codec ID/Info : UTF-8 Plain Text
Duration : 59 min 7 s
Bit rate : 120 b/s
Frame rate : 0.184 FPS
Count of elements : 653
Stream size : 52.2 KiB (0%)
Language : Thai
Default : No
Forced : No

Text #32
ID : 34
Format : UTF-8
Codec ID : S_TEXT/UTF8
Codec ID/Info : UTF-8 Plain Text
Duration : 59 min 7 s
Bit rate : 46 b/s
Frame rate : 0.183 FPS
Count of elements : 648
Stream size : 20.3 KiB (0%)
Language : Turkish
Default : No
Forced : No

Text #33
ID : 35
Format : UTF-8
Codec ID : S_TEXT/UTF8
Codec ID/Info : UTF-8 Plain Text
Duration : 59 min 7 s
Bit rate : 81 b/s
Frame rate : 0.184 FPS
Count of elements : 653
Stream size : 35.2 KiB (0%)
Language : Ukrainian
Default : No
Forced : No

Text #34
ID : 36
Format : UTF-8
Codec ID : S_TEXT/UTF8
Codec ID/Info : UTF-8 Plain Text
Duration : 59 min 7 s
Bit rate : 62 b/s
Frame rate : 0.183 FPS
Count of elements : 650
Stream size : 27.2 KiB (0%)
Language : Vietnamese
Default : No
Forced : No

Text #35
ID : 37
Format : UTF-8
Codec ID : S_TEXT/UTF8
Codec ID/Info : UTF-8 Plain Text
Duration : 59 min 7 s
Bit rate : 51 b/s
Frame rate : 0.184 FPS
Count of elements : 653
Stream size : 22.1 KiB (0%)
Title : Chinese (Simplified)
Language : Chinese
Default : No
Forced : No

Text #36
ID : 38
Format : UTF-8
Codec ID : S_TEXT/UTF8
Codec ID/Info : UTF-8 Plain Text
Duration : 59 min 7 s
Bit rate : 45 b/s
Frame rate : 0.184 FPS
Count of elements : 653
Stream size : 19.9 KiB (0%)
Title : Chinese (Traditional)
Language : Chinese
Default : No
Forced : No

Menu
00:00:00.000 : en:Chapter 01
00:08:44.107 : en:Chapter 02
00:18:15.845 : en:Chapter 03
00:30:45.385 : en:Chapter 04
00:47:38.606 : en:Chapter 05
00:58:22.624 : en:Chapter 06


Source Information
Narcos.Mexico.S03.1080p.BluRay.Remux.AVC.DTS-HD.MA.5.1-MJOLNiR (92.89 GB) (Thanks!)
NF HUNO WebDL for subs (Thanks!)
Code: General
Unique ID : 5355085451132029979017935637318734250 (0x4075A18E77D32F8A6D5079A52C011AA)
Complete name : Narcos.Mexico.S03E01.12.Steps.1080p.BluRay.Remux.AVC.DTS-HD.MA.5.1-MJOLNiR.mkv
Format : Matroska
Format version : Version 4
File size : 9.54 GiB
Duration : 59 min 21 s
Overall bit rate mode : Variable
Overall bit rate : 23.0 Mb/s
Frame rate : 23.976 FPS
Encoded date : 2022-10-18 12:27:46 UTC
Writing application : mkvmerge v71.0.0 ('Altitude') 64-bit
Writing library : libebml v1.4.4 + libmatroska v1.7.1

Video
ID : 1
Format : AVC
Format/Info : Advanced Video Codec
Format profile : [email protected]
Format settings : CABAC / 3 Ref Frames
Format settings, CABAC : Yes
Format settings, Reference : 3 frames
Codec ID : V_MPEG4/ISO/AVC
Duration : 59 min 21 s
Bit rate mode : Variable
Bit rate : 21.0 Mb/s
Maximum bit rate : 35.0 Mb/s
Width : 1 920 pixels
Height : 1 080 pixels
Display aspect ratio : 16:9
Frame rate mode : Constant
Frame rate : 23.976 (24000/1001) FPS
Color space : YUV
Chroma subsampling : 4:2:0
Bit depth : 8 bits
Scan type : Progressive
Bits/(Pixel*Frame) : 0.422
Stream size : 8.70 GiB (91%)
Default : Yes
Forced : No

Audio
ID : 2
Format : DTS XLL
Format/Info : Digital Theater Systems
Commercial name : DTS-HD Master Audio
Codec ID : A_DTS
Duration : 59 min 21 s
Bit rate mode : Variable
Bit rate : 1 990 kb/s
Channel(s) : 6 channels
Channel layout : C L R Ls Rs LFE
Sampling rate : 48.0 kHz
Frame rate : 93.750 FPS (512 SPF)
Bit depth : 16 bits
Compression mode : Lossless
Stream size : 845 MiB (9%)
Language : English
Default : Yes
Forced : No

Text #1
ID : 3
Format : PGS
Muxing mode : zlib
Codec ID : S_HDMV/PGS
Codec ID/Info : Picture based subtitle format used on BDs/HD-DVDs
Duration : 57 min 23 s
Bit rate : 12.9 kb/s
Frame rate : 0.186 FPS
Count of elements : 640
Stream size : 5.28 MiB (0%)
Language : English
Default : Yes
Forced : No

Text #2
ID : 4
Format : PGS
Muxing mode : zlib
Codec ID : S_HDMV/PGS
Codec ID/Info : Picture based subtitle format used on BDs/HD-DVDs
Duration : 59 min 7 s
Bit rate : 29.1 kb/s
Frame rate : 0.364 FPS
Count of elements : 1292
Stream size : 12.3 MiB (0%)
Language : German
Default : No
Forced : No

Text #3
ID : 5
Format : PGS
Muxing mode : zlib
Codec ID : S_HDMV/PGS
Codec ID/Info : Picture based subtitle format used on BDs/HD-DVDs
Duration : 59 min 7 s
Bit rate : 13.2 kb/s
Frame rate : 0.185 FPS
Count of elements : 656
Stream size : 5.57 MiB (0%)
Language : German
Default : No
Forced : No

Menu
00:00:00.000 : Chapter 01
00:08:44.107 : Chapter 02
00:18:15.845 : Chapter 03
00:30:45.385 : Chapter 04
00:47:38.606 : Chapter 05
00:58:22.624 : Chapter 06


We have no issue with individuals posting or re-uploading our torrents on a platform we aren't on. However, if this is something you'd like to do, please do so in a 'as-is' format. We ask that you do not create a new torrent, include all descriptions you see above including the SEV logo, tags, notes and screenshots. If you'd like to become a permanent poster on a website we don't post to, feel free to get in contact with a Sublime Encoded Video member.

We are recruiting/training new members for SEV & seedbox providers as well as people to help out with subtitles.
As you already know, we deliver quality, so you know the standard.
If you're interested, feel free to contact any of the team members.


Narcos - Mexico - Season 03 [2021] 1080p BDRip x265 DTS-HD MA 5.1 Kira [SEV]