PXT24

PXT24

Ne le dis à personne AKA Tell No One (2006) (1080p BluRay x265 10bit EAC3 5.1 French - timesuck)
  • Category
    : Movies
  • Type
    : HEVC/x265
  • Language
    : French
  • Total size
    : 6.60 GB
  • Date uploaded
    : 08 Jul ,2024

--- MOVIE ---
Ne le dis à personne AKA Tell No One (2006)


--- SCREENS ---

Ne-le-dis-personne-AKA-Tell-No-One-2006-1080p-BDRip-x265-10bit-EAC3-5-1-timesuck-9

Ne-le-dis-personne-AKA-Tell-No-One-2006-1080p-BDRip-x265-10bit-EAC3-5-1-timesuck-65

Ne-le-dis-personne-AKA-Tell-No-One-2006-1080p-BDRip-x265-10bit-EAC3-5-1-timesuck-67

Ne-le-dis-personne-AKA-Tell-No-One-2006-1080p-BDRip-x265-10bit-EAC3-5-1-timesuck-81

Ne-le-dis-personne-AKA-Tell-No-One-2006-1080p-BDRip-x265-10bit-EAC3-5-1-timesuck-227

Ne-le-dis-personne-AKA-Tell-No-One-2006-1080p-BDRip-x265-10bit-EAC3-5-1-timesuck-250


PROCESS
Avg QP : 23.55
frame I : 1666, Avg QP:19.31 kb/s: 20624.27
frame P : 33569, Avg QP:20.40 kb/s: 13914.34
frame B : 153332, Avg QP:24.29 kb/s: 4749.80
Weighted P-Frames : Y:2.7% UV:0.9%
Weighted B-Frames : Y:2.5% UV:0.6%


SOURCE
File Name : Ne le dis à personne a.k.a Tell No One 2006 1080p Blu-ray Remux AVC DTS-HD MA 5.1 - KRaLiMaRKo.mkv (Thanks!)
Format : Matroska
File Size : 26.5 GiB
Overall Bitrate : 29.0 Mb/s
Resolution : 1920 x 1080


MEDIAINFO
General
Unique ID : 234015087922179952127345291043857053168 (0xB00DAAA17FA770EE1BFB4DA8CDD535F0)
Complete name : Ne le dis à personne AKA Tell No One (2006) (1080p BDRip x265 10bit EAC3 5.1 - timesuck).mkv
Format : Matroska
Format version : Version 4
File size : 6.56 GiB
Duration : 2 h 10 min
Overall bit rate : 7 175 kb/s
Frame rate : 24.000 FPS
Movie name : Ne le dis à personne AKA Tell No One (2006)
Encoded date : 2024-05-04 07:40:07 UTC
Writing application : mkvmerge v84.0 ('Sleeper') 64-bit
Writing library : libebml v1.4.5 + libmatroska v1.7.1
Cover : Yes
Attachments : cover.jpg
Encoded by : timesuck

Video
ID : 1
Format : HEVC
Format/Info : High Efficiency Video Coding
Format profile : Main 10@L4@Main
Codec ID : V_MPEGH/ISO/HEVC
Duration : 2 h 10 min
Bit rate : 6 522 kb/s
Width : 1 918 pixels
Height : 816 pixels
Display aspect ratio : 2.35:1
Frame rate mode : Constant
Frame rate : 24.000 FPS
Color space : YUV
Chroma subsampling : 4:2:0
Bit depth : 10 bits
Bits/(Pixel*Frame) : 0.174
Stream size : 5.97 GiB (91%)
Writing library : x265 3.6+2+13-9a3dac6e5:[Windows][MSVC 1937][64 bit] 10bit
Encoding settings : cpuid=1111039 / frame-threads=4 / numa-pools=16 / wpp / no-pmode / no-pme / no-psnr / no-ssim / log-level=2 / input-csp=1 / input-res=1918x816 / interlace=0 / total-frames=188567 / level-idc=0 / high-tier=1 / uhd-bd=0 / ref=5 / no-allow-non-conformance / no-repeat-headers / annexb / no-aud / no-eob / no-eos / no-hrd / info / hash=0 / temporal-layers=0 / open-gop / min-keyint=24 / keyint=250 / gop-lookahead=0 / bframes=8 / b-adapt=2 / b-pyramid / bframe-bias=0 / rc-lookahead=80 / lookahead-slices=4 / scenecut=40 / no-hist-scenecut / radl=0 / no-splice / no-intra-refresh / ctu=64 / min-cu-size=8 / no-rect / no-amp / max-tu-size=32 / tu-inter-depth=4 / tu-intra-depth=4 / limit-tu=4 / rdoq-level=2 / dynamic-rd=0.00 / no-ssim-rd / signhide / no-tskip / nr-intra=0 / nr-inter=0 / no-constrained-intra / strong-intra-smoothing / max-merge=3 / limit-refs=3 / limit-modes / me=3 / subme=5 / merange=57 / temporal-mvp / no-frame-dup / no-hme / weightp / weightb / no-analyze-src-pics / deblock=-3:-3 / sao / no-sao-non-deblock / rd=4 / selective-sao=2 / no-early-skip / rskip / no-fast-intra / no-tskip-fast / no-cu-lossless / b-intra / no-splitrd-skip / rdpenalty=0 / psy-rd=1.00 / psy-rdoq=3.00 / no-rd-refine / no-lossless / cbqpoffs=-1 / crqpoffs=-2 / rc=crf / crf=19.0 / qcomp=0.60 / qpstep=4 / stats-write=0 / stats-read=0 / ipratio=1.40 / pbratio=1.30 / aq-mode=5 / aq-strength=1.10 / aq-bias-strength=1.00 / cutree / zone-count=0 / no-strict-cbr / qg-size=32 / no-rc-grain / qpmax=69 / qpmin=0 / no-const-vbv / sar=0 / overscan=0 / videoformat=5 / range=0 / colorprim=1 / transfer=1 / colormatrix=1 / chromaloc=0 / display-window=0 / cll=0,0 / min-luma=0 / max-luma=1023 / log2-max-poc-lsb=8 / vui-timing-info / vui-hrd-info / slices=1 / no-opt-qp-pps / no-opt-ref-list-length-pps / no-multi-pass-opt-rps / scenecut-bias=0.05 / no-opt-cu-delta-qp / no-aq-motion / no-hdr10 / no-hdr10-opt / no-dhdr10-opt / no-idr-recovery-sei / analysis-reuse-level=0 / analysis-save-reuse-level=0 / analysis-load-reuse-level=0 / scale-factor=0 / refine-intra=0 / refine-inter=0 / refine-mv=1 / refine-ctu-distortion=0 / no-limit-sao / ctu-info=0 / no-lowpass-dct / refine-analysis-type=0 / copy-pic=1 / max-ausize-factor=1.0 / no-dynamic-refine / no-single-sei / no-hevc-aq / no-svt / no-field / qp-adaptation-range=1.00 / scenecut-aware-qp=0 / conformance-window-offsets / right=0 / bottom=0 / decoder-max-rate=0 / no-vbv-live-multi-pass / no-mcstf / no-sbrc
Default : Yes
Forced : No
Color range : Limited
Color primaries : BT.709
Transfer characteristics : BT.709
Matrix coefficients : BT.709

Audio
ID : 2
Format : E-AC-3
Format/Info : Enhanced AC-3
Commercial name : Dolby Digital Plus
Codec ID : A_EAC3
Duration : 2 h 10 min
Bit rate mode : Constant
Bit rate : 640 kb/s
Channel(s) : 6 channels
Channel layout : L R C LFE Ls Rs
Sampling rate : 48.0 kHz
Frame rate : 31.250 FPS (1536 SPF)
Compression mode : Lossy
Stream size : 599 MiB (9%)
Language : French
Service kind : Complete Main
Default : Yes
Forced : No
Dialog Normalization : -25 dB
compr : -0.28 dB
dmixmod : Lo/Ro
ltrtcmixlev : -3.0 dB
ltrtsurmixlev : -3.0 dB
lorocmixlev : -3.0 dB
lorosurmixlev : -3.0 dB
dialnorm_Average : -25 dB
dialnorm_Minimum : -25 dB
dialnorm_Maximum : -25 dB

Text #1
ID : 3
Format : UTF-8
Codec ID : S_TEXT/UTF8
Codec ID/Info : UTF-8 Plain Text
Duration : 2 h 0 min
Bit rate : 35 b/s
Frame rate : 0.148 FPS
Count of elements : 1073
Stream size : 31.1 KiB (0%)
Title : SRT (OCR'ed)
Language : English
Default : No
Forced : No

Text #2
ID : 4
Format : PGS
Muxing mode : zlib
Codec ID : S_HDMV/PGS
Codec ID/Info : Picture based subtitle format used on BDs/HD-DVDs
Duration : 2 h 10 min
Bit rate : 30.6 kb/s
Frame rate : 0.275 FPS
Count of elements : 2150
Stream size : 28.5 MiB (0%)
Language : English
Default : No
Forced : No

Menu
00:00:00.000 : 00:00:00.000
00:07:43.375 : 00:07:43.375
00:19:09.417 : 00:19:09.417
00:25:28.958 : 00:25:28.958
00:33:48.875 : 00:33:48.875
00:41:51.667 : 00:41:51.667
00:52:27.083 : 00:52:27.083
01:03:36.833 : 01:03:36.833
01:09:23.875 : 01:09:23.875
01:15:13.042 : 01:15:13.042
01:23:49.000 : 01:23:49.000
01:32:44.917 : 01:32:44.917
01:40:39.458 : 01:40:39.458
01:48:02.875 : 01:48:02.875
01:58:14.875 : 01:58:14.875
02:01:58.083 : 02:01:58.083