PXT24

PXT24

Oshi no Ko : Season 01 S01 [2023] COMPLETE 1080p BDRip x265 PCM 2.0 Kira [SEV]
  • Category
    : Anime
  • Type
    : Subbed
  • Language
    : Japanese
  • Total size
    : 60.80 GB
  • Date uploaded
    : 06 Feb ,2024

SEV-logo

Source vs Encode :- Link

Screenshot's
B5BdIFsB_t c4hcBwaI_t 8kZxTNs0_t NjQi4xId_t bepR1Diw_t ZBbgm3Yh_t taJ0cZsc_t 0mxtyGVw_t zLCzEIiu_t UgeuF4Ao_t


Media Information
Code: General
Unique ID : 28607181890874452878571001594117532112 (0x15858AF66FA569122303F88D5506A9D0)
Complete name : Oshi no Ko - Episode 01 - Mother and Children 1080p BDRip x265 PCM 5.1 Kira [SEV].mkv
Format : Matroska
Format version : Version 4
File size : 13.9 GiB
Duration : 1 h 22 min
Overall bit rate : 24.3 Mb/s
Frame rate : 23.976 FPS
Movie name : | 【推しの子】 【Oshi no Ko】 / 【My Favorite Idol】 : Episode 01 : Mother and Children | 1080p | BDRip | x265 | PCM/ACM 5.1 @ 6912 Kbps | Kira [SEV] |
Encoded date : 2024-01-25 04:40:41 UTC
Writing application : mkvmerge v82.0 ('I'm The President') 64-bit
Writing library : libebml v1.4.5 + libmatroska v1.7.1
Attachments : AdLibBT-Regular.ttf / ANA-ONEIROPARMENI82.TTF / ANTIQUEOLIVESTD-BLACK.OTF / arial.ttf / arialbd.ttf / ArialBitmap50sp.otf / AVERIASERIFBOLD.TTF / BEAUTIFULEVERYTIME.TTF / BEOSANS-R12BOLD.OTF / BIP.TTF / BLOCKPARTY.TTF / calibri.ttf / calibrib.otf / calibril.otf / CATALOGUE.TTF / CHARME.TTF / CORPID-BLACK-STR.OTF / DANIELBLACK.TTF / Font Awesome 5 Free-Solid-900.otf / FOTPOPHAPPINESSSTRP-EXTRABOLD.OTF / FOT_DNPShuei4goStd-M.otf / FROMWHEREYOUARE.TTF / GandhiSans-BoldItalic_0.otf / GandhiSans-Bold_0.otf / grain.ttf / HelveticaLt.ttf / helvetica_medium.ttf / ITCKRIST.TTF / KozukaGothicPr6NR.ttf / MONSTERGAME.TTF / NOMORELIES.TTF / Polo.ttf / QUADRAAT-BOLD.OTF / QUADRAAT-REGULAR.OTF / SECONDBREAKFAST.TTF / Shinryu-STR.ttf / Signika-Bold.ttf / tahomabd.ttf / UDDigiKyokashoStd-Bold.otf

Video
ID : 1
Format : HEVC
Format/Info : High Efficiency Video Coding
Format profile : Main 10@L4@Main
Codec ID : V_MPEGH/ISO/HEVC
Duration : 1 h 22 min
Bit rate : 14.4 Mb/s
Width : 1 920 pixels
Height : 1 080 pixels
Display aspect ratio : 16:9
Frame rate mode : Variable
Frame rate : 23.976 (24000/1001) FPS
Color space : YUV
Chroma subsampling : 4:2:0
Bit depth : 10 bits
Bits/(Pixel*Frame) : 0.290
Stream size : 8.27 GiB (59%)
Title : | 【推しの子】 【Oshi no Ko】 / 【My Favorite Idol】 : Episode 01 : Mother and Children | 1080p | BDRip | x265 | PCM/ACM 5.1 @ 6912 Kbps | Kira [SEV] |
Writing library : x265 3.5+112-ce8642f22:[Windows][MSVC 1938][64 bit] 10bit
Encoding settings : cpuid=1111039 / frame-threads=5 / numa-pools=32 / wpp / no-pmode / no-pme / no-psnr / no-ssim / log-level=2 / input-csp=1 / input-res=1920x1080 / interlace=0 / total-frames=58993 / level-idc=0 / high-tier=1 / uhd-bd=0 / ref=5 / no-allow-non-conformance / no-repeat-headers / annexb / no-aud / no-eob / no-eos / no-hrd / info / hash=0 / temporal-layers=0 / open-gop / min-keyint=23 / keyint=250 / gop-lookahead=0 / bframes=16 / b-adapt=2 / b-pyramid / bframe-bias=0 / rc-lookahead=100 / lookahead-slices=0 / scenecut=40 / no-hist-scenecut / radl=0 / no-splice / no-intra-refresh / ctu=64 / min-cu-size=8 / no-rect / no-amp / max-tu-size=32 / tu-inter-depth=4 / tu-intra-depth=4 / limit-tu=4 / rdoq-level=2 / dynamic-rd=0.00 / no-ssim-rd / signhide / no-tskip / nr-intra=0 / nr-inter=0 / no-constrained-intra / no-strong-intra-smoothing / max-merge=5 / limit-refs=0 / limit-modes / me=3 / subme=7 / merange=92 / temporal-mvp / no-frame-dup / no-hme / weightp / weightb / no-analyze-src-pics / deblock=-3:-3 / no-sao / no-sao-non-deblock / rd=4 / selective-sao=0 / no-early-skip / rskip / no-fast-intra / no-tskip-fast / no-cu-lossless / b-intra / no-splitrd-skip / rdpenalty=0 / psy-rd=1.50 / psy-rdoq=1.00 / no-rd-refine / no-lossless / cbqpoffs=0 / crqpoffs=0 / rc=crf / crf=12.0 / qcomp=0.60 / qpstep=4 / stats-write=0 / stats-read=0 / ipratio=1.40 / pbratio=1.30 / aq-mode=3 / aq-strength=1.00 / cutree / zone-count=0 / no-strict-cbr / qg-size=32 / no-rc-grain / qpmax=69 / qpmin=0 / no-const-vbv / sar=0 / overscan=0 / videoformat=5 / range=0 / colorprim=2 / transfer=2 / colormatrix=2 / chromaloc=0 / display-window=0 / cll=0,0 / min-luma=0 / max-luma=1023 / log2-max-poc-lsb=8 / vui-timing-info / vui-hrd-info / slices=1 / no-opt-qp-pps / no-opt-ref-list-length-pps / no-multi-pass-opt-rps / scenecut-bias=0.05 / no-opt-cu-delta-qp / no-aq-motion / no-hdr10 / no-hdr10-opt / no-dhdr10-opt / no-idr-recovery-sei / analysis-reuse-level=0 / analysis-save-reuse-level=0 / analysis-load-reuse-level=0 / scale-factor=0 / refine-intra=0 / refine-inter=0 / refine-mv=1 / refine-ctu-distortion=0 / no-limit-sao / ctu-info=0 / no-lowpass-dct / refine-analysis-type=0 / copy-pic=1 / max-ausize-factor=1.0 / no-dynamic-refine / no-single-sei / no-hevc-aq / no-svt / no-field / qp-adaptation-range=1.00 / scenecut-aware-qp=0conformance-window-offsets / right=0 / bottom=0 / decoder-max-rate=0 / no-vbv-live-multi-pass / no-mcstf / no-sbrc
Language : Japanese
Default : Yes
Forced : No

Audio #1
ID : 2
ID in the original source m : 4353 (0x1101)
Format : PCM
Format settings : Little / Signed
Codec ID : A_MS/ACM / 00000001-0000-0010-8000-00AA00389B71
Duration : 1 h 22 min
Bit rate mode : Constant
Bit rate : 6 912 kb/s / 6 912 kb/s
Channel(s) : 6 channels
Channel layout : L R C LFE Ls Rs
Sampling rate : 48.0 kHz
Frame rate : 30.000 FPS (1600 SPF)
Bit depth : 24 bits
Stream size : 3.96 GiB (28%)
Title : Japanese BD PCM/ACM 5.1 @ 6912 Kbps
Language : Japanese
Default : Yes
Forced : No
Original source medium : Blu-ray

Audio #2
ID : 3
ID in the original source m : 4352 (0x1100)
Format : PCM
Format settings : Little / Signed
Codec ID : A_PCM/INT/LIT
Duration : 1 h 22 min
Bit rate mode : Constant
Bit rate : 2 304 kb/s
Channel(s) : 2 channels
Sampling rate : 48.0 kHz
Frame rate : 30.000 FPS (1600 SPF)
Bit depth : 24 bits
Stream size : 1.32 GiB (9%)
Title : Japanese BD PCM 2.0 @ 2304 Kbps
Language : Japanese
Default : No
Forced : No
Original source medium : Blu-ray

Audio #3
ID : 4
Format : AC-3
Format/Info : Audio Coding 3
Commercial name : Dolby Digital
Codec ID : A_AC3
Duration : 1 h 22 min
Bit rate mode : Constant
Bit rate : 640 kb/s
Channel(s) : 2 channels
Channel layout : L R
Sampling rate : 48.0 kHz
Frame rate : 31.250 FPS (1536 SPF)
Compression mode : Lossy
Stream size : 375 MiB (3%)
Title : Commentary with Rie Takahashi, Kento Ito, Yurie Ikoma and Yumi Uchiyama
Language : Japanese
Service kind : Complete Main
Default : Yes
Forced : No

Text #1
ID : 5
Format : ASS
Codec ID : S_TEXT/ASS
Codec ID/Info : Advanced Sub Station Alpha
Duration : 1 h 21 min
Bit rate : 11.0 kb/s
Frame rate : 0.792 FPS
Count of elements : 3892
Compression mode : Lossless
Stream size : 6.46 MiB (0%)
Title : [MTBB] English ASS
Language : English
Default : Yes
Forced : No

Text #2
ID : 6
Format : ASS
Codec ID : S_TEXT/ASS
Codec ID/Info : Advanced Sub Station Alpha
Duration : 1 h 21 min
Bit rate : 11.0 kb/s
Frame rate : 0.792 FPS
Count of elements : 3892
Compression mode : Lossless
Stream size : 6.46 MiB (0%)
Title : [MTBB-Honorifics] English ASS
Language : enm
Default : No
Forced : No

Menu
00:00:00.000 : ja:Chapter 01
00:15:36.018 : ja:Chapter 02
00:25:16.014 : ja:Chapter 03
00:39:43.089 : ja:Chapter 04
01:01:00.073 : ja:Chapter 05
01:19:39.483 : ja:Chapter 06
01:21:10.866 : ja:Chapter 07


Source Information
[BDMV][【推しの子】] (139 GB) (Thanks!)
MTBB Subs (Thanks!)
Code: General
Unique ID : 50832379264647203859057730879290995692 (0x263DF5CB8A3AB25217B44975E521F3EC)
Complete name : Oshi no Ko - 01 REMUX.mkv
Format : Matroska
Format version : Version 2
File size : 24.8 GiB
Duration : 1 h 22 min
Overall bit rate mode : Constant
Overall bit rate : 43.4 Mb/s
Frame rate : 23.976 FPS
Movie name : 【推しの子】 1
Encoded date : 2024-01-24 04:25:20 UTC
Writing application : MakeMKV v1.17.3 win(x64-release)
Writing library : libmakemkv v1.17.3 (1.3.10/1.5.2) win(x64-release)

Video
ID : 1
ID in the original source m : 4113 (0x1011)
Format : AVC
Format/Info : Advanced Video Codec
Format profile : [email protected]
Format settings : CABAC / 4 Ref Frames
Format settings, CABAC : Yes
Format settings, Reference : 4 frames
Codec ID : V_MPEG4/ISO/AVC
Duration : 1 h 22 min
Bit rate mode : Constant
Bit rate : 34.1 Mb/s
Nominal bit rate : 36.0 Mb/s
Width : 1 920 pixels
Height : 1 080 pixels
Display aspect ratio : 16:9
Frame rate mode : Constant
Frame rate : 23.976 (24000/1001) FPS
Color space : YUV
Chroma subsampling : 4:2:0
Bit depth : 8 bits
Scan type : Progressive
Bits/(Pixel*Frame) : 0.687
Time code of first frame : 01:00:00:00
Stream size : 19.6 GiB (79%)
Language : English
Default : No
Forced : No
Original source medium : Blu-ray

Audio #1
ID : 2
ID in the original source m : 4352 (0x1100)
Format : PCM
Format settings : Little / Signed
Codec ID : A_PCM/INT/LIT
Duration : 1 h 22 min
Bit rate mode : Constant
Bit rate : 2 304 kb/s
Channel(s) : 2 channels
Sampling rate : 48.0 kHz
Frame rate : 30.000 FPS (1600 SPF)
Bit depth : 24 bits
Stream size : 1.32 GiB (5%)
Title : Stereo
Language : Japanese
Default : Yes
Forced : No
Original source medium : Blu-ray

Audio #2
ID : 3
ID in the original source m : 4353 (0x1101)
Format : PCM
Format settings : Little / Signed
Codec ID : A_MS/ACM / 00000001-0000-0010-8000-00AA00389B71
Duration : 1 h 22 min
Bit rate mode : Constant
Bit rate : 6 912 kb/s / 6 912 kb/s
Channel(s) : 6 channels
Channel layout : L R C LFE Ls Rs
Sampling rate : 48.0 kHz
Frame rate : 30.000 FPS (1600 SPF)
Bit depth : 24 bits
Stream size : 3.96 GiB (16%)
Title : Surround 5.1
Language : Japanese
Default : No
Forced : No
Original source medium : Blu-ray

Menu
00:00:00.000 : ja:Chapter 01
00:15:36.018 : ja:Chapter 02
00:25:16.014 : ja:Chapter 03
00:39:43.089 : ja:Chapter 04
01:01:00.073 : ja:Chapter 05
01:19:39.483 : ja:Chapter 06
01:21:10.866 : ja:Chapter 07


We have no issue with individuals posting or re-uploading our torrents on a platform we aren't on. However, if this is something you'd like to do, please do so in a 'as-is' format. We ask that you do not create a new torrent, include all descriptions you see above including the SEV logo, tags, notes and screenshots. If you'd like to become a permanent poster on a website we don't post to, feel free to get in contact with a Sublime Encoded Video member.

We are recruiting/training new members for SEV & seedbox providers as well as people to help out with subtitles.
As you already know, we deliver quality, so you know the standard.
If you're interested, feel free to contact any of the team members.