PXT24

PXT24

Patna Shuklla (2024) Hindi 1080p - 3200 MB- WEBRip DD+5.1 & AAC.2.0 ESub x264-Shadow
  • Category
    : Movies
  • Type
    : Bollywood
  • Language
    : Hindi
  • Total size
    : 3.10 GB
  • Date uploaded
    : 03 Apr ,2024

1711649602866-v
Patna Shuklla (2024) Hindi 1080p - 3200 MB- WEBRip DD+5.1 & AAC.2.0 x264-Shadow

General
Unique ID : 282682996384771488827825800901308712
Format version : Version 4
File size : 3.14 GiB
Duration : 2 h 5 min
Overall bit rate : 3 592 kb/s
Movie name :
Encoded date : UTC 2024-03-28 18:42:03
Writing application : mkvmerge v82.0 ('I'm The President') 64-bit
Writing library : libebml v1.4.5 + libmatroska v1.7.1

Video
ID : 1
Format : AVC
Format/Info : Advanced Video Codec
Format profile : High@L4
Format settings : CABAC / 4 Ref Frames
Format settings, CABAC : Yes
Format settings, Reference frames : 4 frames
Format settings, GOP : M=4, N=48
Codec ID : V_MPEG4/ISO/AVC
Duration : 2 h 5 min
Bit rate : 3 300 kb/s
Width : 1 920 pixels
Height : 1 080 pixels
Display aspect ratio : 16:9
Frame rate mode : Constant
Frame rate : 24.000 FPS
Color space : YUV
Chroma subsampling : 4:2:0
Bit depth : 8 bits
Scan type : Progressive
Bits/(Pixel*Frame) : 0.066
Stream size : 2.86 GiB (91%)
Title :
Writing library : x264 core 155 r2917+2 f192430
Encoding settings : cabac=1 / ref=4 / deblock=1:0:0 / analyse=0x3:0x113 / me=hex / subme=8 / psy=1 / psy_rd=1.00:0.00 / mixed_ref=1 / me_range=16 / chroma_me=1 / trellis=2 / 8x8dct=1 / cqm=0 / deadzone=21,11 / fast_pskip=1 / chroma_qp_offset=-2 / threads=10 / lookahead_threads=1 / sliced_threads=0 / nr=0 / decimate=1 / interlaced=0 / bluray_compat=0 / stitchable=1 / constrained_intra=0 / bframes=3 / b_pyramid=2 / b_adapt=2 / b_bias=0 / direct=3 / weightb=1 / open_gop=0 / weightp=2 / keyint=48 / keyint_min=25 / scenecut=0 / intra_refresh=0 / rc_lookahead=48 / rc=2pass / mbtree=1 / bitrate=3300 / ratetol=1.0 / qcomp=0.60 / qpmin=0 / qpmax=69 / qpstep=4 / cplxblur=20.0 / qblur=0.5 / vbv_maxrate=4950 / vbv_bufsize=6600 / nal_hrd=none / filler=0 / ip_ratio=1.40 / aq=3:1.00
Language : English
Default : Yes
Forced : No
Color range : Limited
Color primaries : BT.709
Matrix coefficients : BT.709

Audio #1
ID : 2
Format : E-AC-3
Format/Info : Enhanced AC-3
Commercial name : Dolby Digital Plus
Codec ID : A_EAC3
Duration : 2 h 5 min
Bit rate mode : Constant
Bit rate : 192 kb/s
Channel(s) : 6 channels
Channel layout : L R C LFE Ls Rs
Sampling rate : 48.0 kHz
Frame rate : 31.250 FPS (1536 SPF)
Compression mode : Lossy
Stream size : 172 MiB (5%)
Title :
Language : Hindi
Service kind : Complete Main
Default : Yes
Forced : No

Audio #2
ID : 3
Format : AAC LC
Format/Info : Advanced Audio Codec Low Complexity
Codec ID : A_AAC-2
Duration : 2 h 5 min
Bit rate : 128 kb/s
Channel(s) : 2 channels
Channel layout : L R
Sampling rate : 48.0 kHz
Frame rate : 46.875 FPS (1024 SPF)
Compression mode : Lossy
Stream size : 115 MiB (4%)
Title :
Language : Hindi
Default : No
Forced : No

Text
ID : 4
Format : UTF-8
Codec ID : S_TEXT/UTF8
Codec ID/Info : UTF-8 Plain Text
Duration : 2 h 2 min
Bit rate : 71 b/s
Count of elements : 2054
Stream size : 64.0 KiB (0%)
Title :
Language : English
Default : Yes
Forced : No

Patna-Shuklla-2024-Hindi-720p-1400-MB-WEBRip-DD-5-1-AAC-2-0-x264-Shadow-002
Patna-Shuklla-2024-Hindi-720p-1400-MB-WEBRip-DD-5-1-AAC-2-0-x264-Shadow-010
Patna-Shuklla-2024-Hindi-720p-1400-MB-WEBRip-DD-5-1-AAC-2-0-x264-Shadow-006

Patna Shuklla (2024) Hindi 1080p - 3200 MB- WEBRip DD+5.1 & AAC.2.0 ESub x264-Shadow