PXT24

PXT24

Patna.Shuklla.2024.Hindi.2160p.HS.WEB-DL.DD+5.1.DV-HDR.H.265-TheBiscuitMan
  • Category
    : Movies
  • Type
    : HEVC/x265
  • Language
    : Hindi
  • Total size
    : 12.30 GB
  • Date uploaded
    : 02 Apr ,2024

a ============================================================== Png-Item-2144731 ==============================================================
Patna.Shuklla.2024.Hindi.2160p.HS.WEB-DL.DD+5.1.DV-HDR.H.265-TheBiscuitMan
==============================================================
IMDB | TMDB | MOVIE TRAILER
==============================================================
Video: HEVC | 3840x2160 24fps | 13.9 Mb/s
Audio: Hindi | E-AC-3 | Enhanced AC-3 | 192 kb/s | DD+5.1 | 6 channels
Subtitle: English | English (SDH)
Size: 12.3 GiB | Duration: 2h 5min
==============================================================
Posted by: xCLuMsYx | Date: 01/04/2024
==============================================================
Ticker-DOT
1
More Poster's

Code: General
Unique ID : 42295984150757830565895285543356881419 (0x1FD1E90582950327929AEF668FC85A0B)
Complete name : Patna.Shuklla.2024.Hindi.2160p.HS.WEB-DL.DD+5.1.DV-HDR.H.265-TheBiscuitMan.mkv
Format : Matroska
Format version : Version 4
File size : 12.3 GiB
Duration : 2 h 5 min
Overall bit rate : 14.1 Mb/s
Frame rate : 24.000 FPS
Writing application : mkvmerge v83.0 ('Circle Of Friends') 64-bit
Writing library : libebml v1.4.5 + libmatroska v1.7.1

Video
ID : 1
Format : HEVC
Format/Info : High Efficiency Video Coding
Format profile : Main 10@L5@Main
HDR format : Dolby Vision, Version 1.0, Profile 8, dvhe.08.06, BL+RPU, no metadata compression
Codec ID : V_MPEGH/ISO/HEVC
Duration : 2 h 5 min
Bit rate : 13.9 Mb/s
Width : 3 840 pixels
Height : 2 160 pixels
Display aspect ratio : 16:9
Frame rate mode : Constant
Frame rate : 24.000 FPS
Color space : YUV
Chroma subsampling : 4:2:0 (Type 2)
Bit depth : 10 bits
Bits/(Pixel*Frame) : 0.070
Stream size : 12.1 GiB (99%)
Language : Hindi
Default : Yes
Forced : No
Color range : Limited
Color primaries : BT.2020
Transfer characteristics : PQ
Matrix coefficients : BT.2020 non-constant

Audio
ID : 2
Format : E-AC-3
Format/Info : Enhanced AC-3
Commercial name : Dolby Digital Plus
Codec ID : A_EAC3
Duration : 2 h 5 min
Bit rate mode : Constant
Bit rate : 192 kb/s
Channel(s) : 6 channels
Channel layout : L R C LFE Ls Rs
Sampling rate : 48.0 kHz
Frame rate : 31.250 FPS (1536 SPF)
Compression mode : Lossy
Stream size : 172 MiB (1%)
Language : Hindi
Service kind : Complete Main
Default : Yes
Forced : No

Text #1
ID : 3
Format : UTF-8
Codec ID : S_TEXT/UTF8
Codec ID/Info : UTF-8 Plain Text
Duration : 2 h 2 min
Bit rate : 67 b/s
Frame rate : 0.257 FPS
Count of elements : 1885
Stream size : 60.5 KiB (0%)
Language : English
Default : No
Forced : No

Text #2
ID : 4
Format : UTF-8
Codec ID : S_TEXT/UTF8
Codec ID/Info : UTF-8 Plain Text
Duration : 2 h 2 min
Bit rate : 71 b/s
Frame rate : 0.280 FPS
Count of elements : 2054
Stream size : 64.0 KiB (0%)
Title : [SDH]
Language : English
Default : Yes
Forced : No

SVCtm
SVCtk
SVCt9
SVCtq
SVCtv
SVCt7
SVCtn
SVCtu
SVCtd
SVCtQ