PXT24

PXT24

Pitch Perfect 1-2-3 - Voices (2012-2017) Trilogy 1080p h264 Ac3 5.1 Ita Eng Sub Ita Eng-MIRCrew
  • Category
    : Movies
  • Type
    : HD
  • Language
    : English
  • Total size
    : 7.60 GB
  • Date uploaded
    : 10 Jul ,2024

Pitch Perfect 1-2-3 - Voices (2012-2017) Trilogy 1080p h264 Ac3 5.1 Ita Eng Sub Ita Eng-MIRCrew

banner-MIRCrew-aprile-22-trasp


NO FOUND ONLY ORIGINAL RELEASE

My release is always in double track audio italian and Original audio
for select it use VLC or dvd player home
not use wmp

On This Release

Pitch Perfect (2012) 1080p h264 Ac3 5.1 Ita Eng Sub Ita Eng-MIRCrew

Pitch Perfect 2 (2015) 1080p h264 Ac3 5.1 Ita Eng Sub Ita Eng-MIRCrew

Pitch Perfect 3 (2017) 1080p h264 Ac3 5.1 Ita Eng Sub Ita Eng-MIRCrew


Pitch Perfect 1-2-3 (2012-2017) Trilogy


Quality MIRCrew in HD 1080p da 7,59 gb

1

youtube_logo  imdb_new



fGu1rKv

Titolo originale Pitch Perfect
Lingua originale inglese
Paese di produzione Stati Uniti d'America
Anno 2012
Durata 112 min
Rapporto 1,85:1
Genere commedia, musicale, sentimentale
Regia Jason Moore
Soggetto Mickey Rapkin (libro)
Sceneggiatura Kay Cannon

W7kBqiE

Anna Kendrick, Adam DeVine, Rebel Wilson, Ben Platt, Brittany Snow, Hana Mae Lee,

bFK3ggF

1) Beca è una ragazza che preferisce ascoltare quello che viene fuori dalle sue cuffie piuttosto che quello che gli accade attorno. Arrivando nel suo nuovo college non trova alcuna comitiva a cui unirsi, ma in qualche modo è in sintonia con un gruppo che non avrebbe mai preso in considerazione: le Mean Girls, ragazze dolci

-------

2) Quando uno scandalo rischia di compromettere il loro ultimo anno alla Barden, le tre volte campionesse in carica temono di aver perso per sempre l'armonia che le univa.

-------

3) Passato l’entusiasmo per la vittoria del campionato mondiale, le Bellas si ritrovano divise e scoprono di non avere prospettive di lavoro facendo musica con il solo canto. Ma quando hanno la possibilità di riunirsi per il tour europeo organizzato dall’USO, questo gruppo di fantastiche nerd torneranno di nuovo insieme per fare musica e prendere un’ultima

48xHWWH

The Barden Bellas are a collegiate, all-girls a cappella singing group thriving on female pop songs and their perfect looks. After a disastrous failing at last year's finals, they are forced to regroup. Among the new recruits is freshman Beca, an independent, aspiring DJ with no interest in the college life. But after she meets Jesse, from the rival all-male a cappella group, Beca has a new outlook and takes it upon herself to help the Bellas find their new look and sound and get back into the competition


vlcsnap-2024-07-10-07h50m39s364

vlcsnap-2024-07-10-07h50m56s797

vlcsnap-2024-07-10-07h51m07s203

vlcsnap-2024-07-10-07h51m14s887

vlcsnap-2024-07-10-07h51m28s301

vlcsnap-2024-07-10-07h51m41s149



aVrMohH

[spoiler]

General

Complete name                            : Pitch Perfect 1-2-3 (2012-2017) 1080p h264 Ac3 5.1 Ita Eng Sub Ita Eng-MIRCrew\Pitch Perfect (2012) 1080p h264 Ac3 5.1 Ita Eng Sub Ita Eng-MIRCrew.mkv
Format                                   : Matroska
Format version                           : Version 2
File size                                : 2.65 GiB
Duration                                 : 1h 52mn
Overall bit rate                         : 3 390 Kbps
Movie name                               : MIRCrew
Encoded date                             : UTC 2024-06-29T14:19:12Z
Writing application                      : mkvmerge v5.8.0 ('No Sleep / Pillow') built on Sep  2 2012 15:37:04
Writing library                          : Lavf55.12.0

Video
ID                                       : 1
Format                                   : AVC
Format/Info                              : Advanced Video Codec
Format profile                           : [email protected]
Format settings, CABAC                   : Yes
Format settings, ReFrames                : 4 frames
Codec ID                                 : V_MPEG4/ISO/AVC
Duration                                 : 1h 52mn
Bit rate                                 : 2 600 Kbps
Width                                    : 1 920 pixels
Height                                   : 1 040 pixels
Display aspect ratio                     : 16:9
Frame rate                               : 23.976 fps
Color space                              : YUV
Chroma subsampling                       : 4:2:0
Bit depth                                : 8 bits
Scan type                                : Progressive
Bits/(Pixel*Frame)                       : 0.054
Stream size                              : 1.95 GiB (73%)
Title                                    : MIRCrew
Writing library                          : x264 core 142 r2479 dd79a61
Encoding settings                        : cabac=1 / ref=1 / deblock=1:0:0
Language                                 : Italian
Default                                  : Yes
Forced                                   : No
Color primaries                          : BT.709-5, BT.1361, IEC 61966-2-4, SMPTE RP177
Transfer characteristics                 : BT.709-5, BT.1361
Matrix coefficients                      : BT.709-5, BT.1361, IEC 61966-2-4 709, SMPTE RP177

Audio #1
ID                                       : 2
Format                                   : AC-3
Format/Info                              : Audio Coding 3
Mode extension                           : CM (complete main)
Codec ID                                 : A_AC3
Duration                                 : 1h 52mn
Bit rate mode                            : Constant
Bit rate                                 : 448 Kbps
Channel(s)                               : 6 channels
Channel positions                        : Front: L C R, Side: L R, LFE
Sampling rate                            : 48.0 KHz
Bit depth                                : 16 bits
Compression mode                         : Lossy
Delay relative to video                  : -5ms
Stream size                              : 359 MiB (13%)
Title                                    : Ita Ac3 5.1
Language                                 : Italian
Default                                  : Yes
Forced                                   : No

Audio #2
ID                                       : 3
Format                                   : AC-3
Format/Info                              : Audio Coding 3
Mode extension                           : CM (complete main)
Codec ID                                 : A_AC3
Duration                                 : 1h 52mn
Bit rate mode                            : Constant
Bit rate                                 : 384 Kbps
Channel(s)                               : 6 channels
Channel positions                        : Front: L C R, Side: L R, LFE
Sampling rate                            : 48.0 KHz
Bit depth                                : 16 bits
Compression mode                         : Lossy
Delay relative to video                  : -5ms
Stream size                              : 308 MiB (11%)
Title                                    : Eng Ac3 5.1
Language                                 : English
Default                                  : No
Forced                                   : No

Text #1
ID                                       : 4
Format                                   : ASS
Codec ID                                 : S_TEXT/ASS
Codec ID/Info                            : Advanced Sub Station Alpha
Compression mode                         : Lossless
Language                                 : Italian
Default                                  : Yes
Forced                                   : No

Text #2
ID                                       : 5
Format                                   : VobSub
Muxing mode                              : zlib
Codec ID                                 : S_VOBSUB
Codec ID/Info                            : The same subtitle format used on DVDs
Title                                    : Ita
Language                                 : Italian
Default                                  : No
Forced                                   : No

Text #3
ID                                       : 6
Format                                   : VobSub
Muxing mode                              : zlib
Codec ID                                 : S_VOBSUB
Codec ID/Info                            : The same subtitle format used on DVDs
Title                                    : Eng
Language                                 : English
Default                                  : No
Forced                                   : No

Menu
00:00:00.000                             : :CAPITOLO 1
00:04:32.772                             : :CAPITOLO 2
00:09:18.015                             : :CAPITOLO 3
00:15:50.991                             : :CAPITOLO 4
00:19:45.768                             : :CAPITOLO 5
00:23:08.595                             : :CAPITOLO 6
00:27:47.457                             : :CAPITOLO 7
00:32:46.047                             : :CAPITOLO 8
00:38:59.337                             : :CAPITOLO 9
00:43:53.964                             : :CAPITOLO 10
00:49:57.494                             : :CAPITOLO 11
00:54:20.590                             : :CAPITOLO 12
01:01:48.705                             : :CAPITOLO 13
01:06:26.691                             : :CAPITOLO 14
01:11:56.353                             : :CAPITOLO 15
01:18:57.190                             : :CAPITOLO 16
01:23:23.290                             : :CAPITOLO 17
01:33:42.241                             : :CAPITOLO 18
01:38:49.673                             : :CAPITOLO 19
01:44:46.321                             : :CAPITOLO 20




[/spoiler]

lvhU6

cWb6Z

nU43TBc

Pitch Perfect 1-2-3 (2012-2017) 1080p h264 Ac3 5.1 Ita Eng Sub Ita Eng-MIRCrew