PXT24

PXT24

Salaam Bombay! (1988) (1080p BluRay x265 10bit OPUS 2.0 Hindi - timesuck)
  • Category
    : Movies
  • Type
    : HEVC/x265
  • Language
    : Hindi
  • Total size
    : 9.00 GB
  • Date uploaded
    : 08 Jul ,2024

--- MOVIE ---
Salaam Bombay! (1988)


--- SCREENS ---

Salaam-Bombay-1988-1080p-BDRip-x265-10bit-OPUS-2-0-timesuck-16

Salaam-Bombay-1988-1080p-BDRip-x265-10bit-OPUS-2-0-timesuck-31

Salaam-Bombay-1988-1080p-BDRip-x265-10bit-OPUS-2-0-timesuck-45

Salaam-Bombay-1988-1080p-BDRip-x265-10bit-OPUS-2-0-timesuck-81

Salaam-Bombay-1988-1080p-BDRip-x265-10bit-OPUS-2-0-timesuck-224

Salaam-Bombay-1988-1080p-BDRip-x265-10bit-OPUS-2-0-timesuck-235


NOTES
• Video, primary audio and Mira Nair commentary track sourced from BFI Blu-ray.
• Commentary by Cinematographer Sandi Sissel sourced from Kino-Lorber Blu-ray.
• Extras sourced from both BFI & Kino-Lorber Blu-rays.


PROCESS
Avg QP : 28.80
frame I : 959, Avg QP:22.56 kb/s: 30652.74
frame P : 26427, Avg QP:25.40 kb/s: 15783.87
frame B : 136947, Avg QP:29.50 kb/s: 6337.49
Weighted P-Frames : Y:7.7% UV:4.3%
Weighted B-Frames : Y:3.2% UV:1.4%


SOURCE 1
File Name : Salaam Bombay! (1988) UK BD (BFI) (Thanks!)
Format : BDAV
Format/Info : Blu-ray Video
File Size : 45.9 GiB
Overall Bitrate : 35.0 Mb/s
Resolution : 1920 x 1080


SOURCE 2
File Name : Salaam.Bombay.1988.COMPLETE.BLURAY-watchHD (Kino-Lorber) (Thanks!)
Format : BDAV
Format/Info : Blu-ray Video
File Size : 41.5 GiB


MEDIAINFO
General
Unique ID : 183088153814804197732705844144259995645 (0x89BD7EEC0EB4AFDB64645950F47817FD)
Complete name : Salaam Bombay! (1988) (1080p BDRip x265 10bit OPUS 2.0 - timesuck).mkv
Format : Matroska
Format version : Version 4
File size : 6.67 GiB
Duration : 1 h 54 min
Overall bit rate : 8 341 kb/s
Frame rate : 23.976 FPS
Movie name : Salaam Bombay! (1988)
Encoded date : 2024-07-04 06:31:33 UTC
Writing application : mkvmerge v84.0 ('Sleeper') 64-bit
Writing library : libebml v1.4.5 + libmatroska v1.7.1 / qaac 2.73, CoreAudioToolbox 7.10.9.0, AAC-LC Encoder, TVBR q54, Quality 96
Cover : Yes
Attachments : cover.jpg
Encoded by : timesuck

Video
ID : 1
Format : HEVC
Format/Info : High Efficiency Video Coding
Format profile : Main 10@L4@Main
Codec ID : V_MPEGH/ISO/HEVC
Duration : 1 h 54 min
Bit rate : 7 999 kb/s
Width : 1 920 pixels
Height : 1 080 pixels
Display aspect ratio : 16:9
Frame rate mode : Constant
Frame rate : 23.976 (24000/1001) FPS
Color space : YUV
Chroma subsampling : 4:2:0
Bit depth : 10 bits
Bits/(Pixel*Frame) : 0.161
Stream size : 6.38 GiB (96%)
Writing library : x265 3.6+2+13-9a3dac6e5:[Windows][MSVC 1937][64 bit] 10bit
Encoding settings : cpuid=1111039 / frame-threads=4 / numa-pools=16 / wpp / no-pmode / no-pme / no-psnr / no-ssim / log-level=2 / input-csp=1 / input-res=1920x1080 / interlace=0 / total-frames=164333 / level-idc=0 / high-tier=1 / uhd-bd=0 / ref=5 / no-allow-non-conformance / no-repeat-headers / annexb / no-aud / no-eob / no-eos / no-hrd / info / hash=0 / temporal-layers=0 / open-gop / min-keyint=23 / keyint=250 / gop-lookahead=0 / bframes=8 / b-adapt=2 / b-pyramid / bframe-bias=0 / rc-lookahead=80 / lookahead-slices=4 / scenecut=40 / no-hist-scenecut / radl=0 / no-splice / no-intra-refresh / ctu=64 / min-cu-size=8 / no-rect / no-amp / max-tu-size=32 / tu-inter-depth=4 / tu-intra-depth=4 / limit-tu=4 / rdoq-level=2 / dynamic-rd=0.00 / no-ssim-rd / signhide / no-tskip / nr-intra=0 / nr-inter=0 / no-constrained-intra / strong-intra-smoothing / max-merge=3 / limit-refs=3 / limit-modes / me=3 / subme=5 / merange=57 / temporal-mvp / no-frame-dup / no-hme / weightp / weightb / no-analyze-src-pics / deblock=-3:-3 / sao / no-sao-non-deblock / rd=4 / selective-sao=2 / no-early-skip / rskip / no-fast-intra / no-tskip-fast / no-cu-lossless / b-intra / no-splitrd-skip / rdpenalty=0 / psy-rd=1.00 / psy-rdoq=3.00 / no-rd-refine / no-lossless / cbqpoffs=-1 / crqpoffs=-2 / rc=abr / bitrate=8000 / qcomp=0.60 / qpstep=4 / stats-write=0 / stats-read=2 / cplxblur=20.0 / qblur=0.5 / ipratio=1.40 / pbratio=1.30 / aq-mode=5 / aq-strength=1.10 / aq-bias-strength=1.00 / cutree / zone-count=0 / no-strict-cbr / qg-size=32 / no-rc-grain / qpmax=69 / qpmin=0 / no-const-vbv / sar=0 / overscan=0 / videoformat=5 / range=0 / colorprim=1 / transfer=1 / colormatrix=1 / chromaloc=0 / display-window=0 / cll=0,0 / min-luma=0 / max-luma=1023 / log2-max-poc-lsb=8 / vui-timing-info / vui-hrd-info / slices=1 / no-opt-qp-pps / no-opt-ref-list-length-pps / no-multi-pass-opt-rps / scenecut-bias=0.05 / no-opt-cu-delta-qp / no-aq-motion / no-hdr10 / no-hdr10-opt / no-dhdr10-opt / no-idr-recovery-sei / analysis-reuse-level=0 / analysis-save-reuse-level=0 / analysis-load-reuse-level=0 / scale-factor=0 / refine-intra=0 / refine-inter=0 / refine-mv=1 / refine-ctu-distortion=0 / no-limit-sao / ctu-info=0 / no-lowpass-dct / refine-analysis-type=0 / copy-pic=1 / max-ausize-factor=1.0 / no-dynamic-refine / no-single-sei / no-hevc-aq / no-svt / no-field / qp-adaptation-range=1.00 / scenecut-aware-qp=0 / conformance-window-offsets / right=0 / bottom=0 / decoder-max-rate=0 / no-vbv-live-multi-pass / no-mcstf / no-sbrc
Default : Yes
Forced : No
Color range : Limited
Color primaries : BT.709
Transfer characteristics : BT.709
Matrix coefficients : BT.709

Audio #1
ID : 2
Format : Opus
Codec ID : A_OPUS
Duration : 1 h 54 min
Bit rate : 208 kb/s
Channel(s) : 2 channels
Channel layout : L R
Sampling rate : 48.0 kHz
Frame rate : 50.000 FPS (960 SPF)
Compression mode : Lossy
Delay relative to video : 1 s 1 ms
Stream size : 170 MiB (2%)
Writing library : opusenc from opus-tools 0.2-29-gecd50e5
Language : Hindi
Default : Yes
Forced : No
ENCODER_OPTIONS : --vbr --bitrate 250

Audio #2
ID : 3
Format : AAC LC
Format/Info : Advanced Audio Codec Low Complexity
Codec ID : A_AAC-2
Duration : 1 h 54 min
Bit rate : 68.1 kb/s
Channel(s) : 2 channels
Channel layout : L R
Sampling rate : 48.0 kHz
Frame rate : 46.875 FPS (1024 SPF)
Compression mode : Lossy
Delay relative to video : 20 ms
Stream size : 55.6 MiB (1%)
Title : Commentary by Director Mira Nair
Language : English
Default : No
Forced : No

Audio #3
ID : 4
Format : AAC LC
Format/Info : Advanced Audio Codec Low Complexity
Codec ID : A_AAC-2
Duration : 1 h 54 min
Bit rate : 72.0 kb/s
Channel(s) : 2 channels
Channel layout : L R
Sampling rate : 48.0 kHz
Frame rate : 46.875 FPS (1024 SPF)
Compression mode : Lossy
Delay relative to video : 20 ms
Stream size : 58.3 MiB (1%)
Title : Commentary by Cinematographer Sandi Sissel
Language : English
Default : No
Forced : No

Text #1
ID : 5
Format : UTF-8
Codec ID : S_TEXT/UTF8
Codec ID/Info : UTF-8 Plain Text
Duration : 1 h 45 min
Bit rate : 24 b/s
Frame rate : 0.114 FPS
Count of elements : 718
Stream size : 19.2 KiB (0%)
Title : SRT
Language : English
Default : No
Forced : No

Text #2
ID : 6
Format : PGS
Muxing mode : zlib
Codec ID : S_HDMV/PGS
Codec ID/Info : Picture based subtitle format used on BDs/HD-DVDs
Duration : 1 h 45 min
Bit rate : 13.9 kb/s
Frame rate : 0.228 FPS
Count of elements : 1436
Stream size : 10.4 MiB (0%)
Language : English
Default : No
Forced : No

Menu
00:00:00.000 : en:Chapter 01
00:08:44.607 : en:Chapter 02
00:19:33.005 : en:Chapter 03
00:30:26.658 : en:Chapter 04
00:38:33.853 : en:Chapter 05
00:46:41.465 : en:Chapter 06
00:58:21.748 : en:Chapter 07
01:07:09.484 : en:Chapter 08
01:15:30.109 : en:Chapter 09
01:24:12.464 : en:Chapter 10
01:34:50.810 : en:Chapter 11
01:44:25.301 : en:Chapter 12

Salaam Bombay! (1988) (1080p BDRip x265 10bit OPUS 2.0 - timesuck)

Featurettes

Interviews & Video Essays

BFI Archive Shorts