PXT24

PXT24

Shaman King (2001) Season 1 S01 (1080p BluRay x265 HEVC 10bit PCM 2.0 Bluespots) [QxR]
  • Category
    : TV
  • Type
    : HEVC/x265
  • Language
    : Japanese
  • Total size
    : 40.30 GB
  • Date uploaded
    : 02 Apr ,2024

Qx-R-Logo1

IMDb (8.0/10)

Genres
Animation, Action, Adventure

Actors
Katsuyuki Konishi, Yūko Satō, Megumi Hayashibara

Plot Summary
Shaman King follows the adventures of a 13-year-old shaman and his teammate, a samurai warrior spirit, who traverse the world fighting evil spirits and misguided shamans on their journey to be the next Shaman King.

Note from Encoder
Uncut Japanese version. Extras are in SD with AC3 2.0 audio.

0102030405060708

Media Information
Code:
General

Format : Matroska
Format version : Version 4
File size : 683 MiB
Duration : 23 min 7 s
Overall bit rate : 4 132 kb/s
Frame rate : 23.976 FPS
Encoded date : 2023-10-26 02:01:56 UTC
Writing application : mkvmerge v74.0.0 ('You Oughta Know') 64-bit
Writing library : libebml v1.4.4 + libmatroska v1.7.1
Encoding Gui : Hybrid 2023.03.17.1

Video

Format : HEVC
Format/Info : High Efficiency Video Coding
Format profile : Main 10@L4@Main
Codec ID : V_MPEGH/ISO/HEVC
Duration : 23 min 6 s
Bit rate : 2 555 kb/s
Width : 1 436 pixels
Height : 1 080 pixels
Display aspect ratio : 4:3
Frame rate mode : Constant
Frame rate : 23.976 (24000/1001) FPS
Color space : YUV
Chroma subsampling : 4:2:0
Bit depth : 10 bits
Bits/(Pixel*Frame) : 0.069
Stream size : 422 MiB (62%)
Writing library : x265 3.5+96-d844ab494:[Windows][GCC 12.2.0][64 bit] 10bit
Encoding settings : cpuid=1111039 / frame-threads=3 / numa-pools=12 / wpp / no-pmode / no-pme / no-psnr / no-ssim / log-level=2 / input-csp=1 / input-res=1436x1080 / interlace=0 / total-frames=0 / level-idc=0 / high-tier=1 / uhd-bd=0 / ref=5 / no-allow-non-conformance / no-repeat-headers / annexb / no-aud / no-eob / no-eos / no-hrd / info / hash=0 / temporal-layers=0 / open-gop / min-keyint=23 / keyint=250 / gop-lookahead=0 / bframes=8 / b-adapt=2 / b-pyramid / bframe-bias=0 / rc-lookahead=60 / lookahead-slices=4 / scenecut=40 / no-hist-scenecut / radl=0 / no-splice / no-intra-refresh / ctu=32 / min-cu-size=8 / rect / no-amp / max-tu-size=32 / tu-inter-depth=1 / tu-intra-depth=1 / limit-tu=0 / rdoq-level=2 / dynamic-rd=0.00 / no-ssim-rd / signhide / tskip / nr-intra=0 / nr-inter=0 / no-constrained-intra / strong-intra-smoothing / max-merge=3 / limit-refs=3 / limit-modes / me=3 / subme=3 / merange=57 / temporal-mvp / no-frame-dup / no-hme / weightp / no-weightb / no-analyze-src-pics / deblock=0:0 / sao / no-sao-non-deblock / rd=4 / selective-sao=4 / early-skip / no-rskip / no-fast-intra / no-tskip-fast / no-cu-lossless / no-b-intra / no-splitrd-skip / rdpenalty=0 / psy-rd=2.00 / psy-rdoq=1.00 / no-rd-refine / no-lossless / cbqpoffs=0 / crqpoffs=0 / rc=crf / crf=20.0 / qcomp=0.60 / qpstep=4 / stats-write=0 / stats-read=0 / ipratio=1.40 / pbratio=1.30 / aq-mode=3 / aq-strength=1.00 / cutree / zone-count=0 / no-strict-cbr / qg-size=8 / no-rc-grain / qpmax=69 / qpmin=0 / no-const-vbv / sar=1 / overscan=0 / videoformat=5 / range=0 / colorprim=2 / transfer=2 / colormatrix=2 / chromaloc=0 / display-window=0 / cll=0,0 / min-luma=0 / max-luma=1023 / log2-max-poc-lsb=8 / vui-timing-info / vui-hrd-info / slices=1 / no-opt-qp-pps / opt-ref-list-length-pps / no-multi-pass-opt-rps / scenecut-bias=0.05 / no-opt-cu-delta-qp / aq-motion / no-hdr10 / no-hdr10-opt / no-dhdr10-opt / no-idr-recovery-sei / analysis-reuse-level=0 / analysis-save-reuse-level=0 / analysis-load-reuse-level=0 / scale-factor=0 / refine-intra=0 / refine-inter=0 / refine-mv=1 / refine-ctu-distortion=0 / no-limit-sao / ctu-info=0 / no-lowpass-dct / refine-analysis-type=0 / copy-pic=1 / max-ausize-factor=1.0 / no-dynamic-refine / no-single-sei / no-hevc-aq / no-svt / no-field / qp-adaptation-range=1.00 / scenecut-aware-qp=0conformance-window-offsets / right=0 / bottom=0 / decoder-max-rate=0 / no-vbv-live-multi-pass / no-mcstf / no-sbrc
Language : English
Default : Yes
Forced : Yes

Audio

Format : PCM
Format settings : Little / Signed
Codec ID : A_PCM/INT/LIT
Duration : 23 min 7 s
Bit rate mode : Constant
Bit rate : 1 536 kb/s
Channel(s) : 2 channels
Sampling rate : 48.0 kHz
Frame rate : 25.000 FPS (1920 SPF)
Bit depth : 16 bits
Stream size : 254 MiB (37%)
Title : Stereo
Language : Japanese
Default : Yes
Forced : No

Subtitles

Format : PGS
Codec ID : S_HDMV/PGS
Codec ID/Info : Picture based subtitle format used on BDs/HD-DVDs
Duration : 23 min 4 s
Bit rate : 39.3 kb/s
Frame rate : 0.382 FPS
Count of elements : 529
Stream size : 6.48 MiB (1%)
Title : English Subtitles
Language : English
Default : Yes
Forced : No


Chapters

00:00:00.000 : en:Opening
00:01:31.007 : en:Part A
00:12:06.809 : en:Part B
00:21:25.575 : en:Ending
00:22:36.313 : en:Preview


Source Information
Code: Shaman King (2001) S01 Bluray Remux Bluespots (Discotek USBD) (221 GB)
Note From QxR:
Quote: Whilst we are happy for our releases to be re-posted on a platform we aren't on, please do so in an 'as-is' format. We ask that you do not create a new torrent, include all descriptions you see above including the QxR logo, tags, notes and screenshots. If you'd like to become a permanent poster on a website we don't post to, feel free to get in contact with a QxR member.

Shaman King (2001) Season 1 S01 (1080p BluRay x265 HEVC 10bit PCM 2.0 Bluespots)

Featurettes