PXT24

PXT24

Space Cadet (2024) 2160p H265 WebDl Rip 10 bit DV HDR10+ ita eng AC3 5.1 sub ita eng Licdom
  • Category
    : Movies
  • Type
    : UHD
  • Language
    : Italian
  • Total size
    : 4.30 GB
  • Date uploaded
    : 08 Jul ,2024

licdom-release-500

space-cadet-2160p

dolby-vision-logo-H100

hdr-10-plus-logo-H100


scheda-film-75

Titolo originale: Space Cadet
Paese di produzione: Stati Uniti
Genere: Commedia, Romance
Anno: 2024
Durata: 1h 50m
Regia: Liz W. Garcia


cast-75

Emma Roberts: Rex Simpson
Tom Hopper: Logan O'Leary
Poppy Liu: Nadine Cai
Gabrielle Union: Pam Proctor
Kuhoo Verma: Violet Marie Vislawski
Desi Lydic: Dr. Stacy Kellogg
Sebastián Yatra: Toddrick Spencer
Sam Robards: Rex's Dad (Calvin Simpson)
Dave Foley: Rudolph Bolton
Yasha Jackson: Grace Jackson


trama-75

Rex, una ragazza della Florida amante delle feste, si rivela essere l'unica speranza per il programma spaziale della NASA dopo aver casualmente partecipato a un addestramento con altri candidati dal curriculum più impressionante, ma privi della sua intelligenza, del suo cuore e del suo sangue freddo.


trailer-75

https://www.youtube.com/watch?v=INILfABYpDo


screenshots-75

ac19178012ad
43fd4c4e14f4
d65ea0438872
61c1cd1c2d4b
56a100017b0b


media-info-75

General
Unique ID : 198783779847782805962675826840482632581 (0x958C5D08393F2E0AB13FBC6A7D8C5385)
Complete name : Space Cadet (2024) WebDl Rip 2160p H265 10 bit DV HDR10+ ita eng AC3 5.1 sub ita eng Licdom.mkv
Format : Matroska
Format version : Version 4
File size : 4.32 GiB
Duration : 1 h 50 min
Overall bit rate : 5 585 kb/s
Frame rate : 23.976 FPS
Movie name : Space Cadet (2024) WebDl Rip 2160p H265 10 bit DV HDR10+ ita eng AC3 5.1 sub ita eng Licdom
Encoded date : 2024-07-08 06:28:08 UTC
Writing application : mkvmerge v85.0 ('Shame For You') 64-bit
Writing library : libebml v1.4.5 + libmatroska v1.7.1 / Lavf61.3.104

Video
ID : 1
Format : HEVC
Format/Info : High Efficiency Video Coding
Format profile : Main 10@L5@Main
HDR format : Dolby Vision, Version 1.0, dvhe.08.06, BL+RPU, HDR10 compatible / SMPTE ST 2094 App 4, Version 1, HDR10+ Profile B compatible
Codec ID : V_MPEGH/ISO/HEVC
Duration : 1 h 50 min
Bit rate : 4 303 kb/s
Width : 3 840 pixels
Height : 1 920 pixels
Display aspect ratio : 2.000
Frame rate mode : Constant
Frame rate : 23.976 (24000/1001) FPS
Color space : YUV
Chroma subsampling : 4:2:0 (Type 2)
Bit depth : 10 bits
Bits/(Pixel*Frame) : 0.024
Stream size : 3.33 GiB (77%)
Title : Vido 2160p
Writing library : x265 3.6+28-8f16d2257:[Windows][GCC 14.1.0][64 bit] 10bit
Encoding settings : cpuid=1111039 / frame-threads=5 / numa-pools=32 / wpp / no-pmode / no-pme / no-psnr / no-ssim / log-level=2 / input-csp=1 / input-res=3840x1920 / interlace=0 / total-frames=0 / level-idc=0 / high-tier=1 / uhd-bd=0 / ref=3 / no-allow-non-conformance / repeat-headers / annexb / no-aud / no-eob / no-eos / no-hrd / info / hash=0 / temporal-layers=0 / open-gop / min-keyint=23 / keyint=250 / gop-lookahead=0 / bframes=4 / b-adapt=2 / b-pyramid / bframe-bias=0 / rc-lookahead=20 / lookahead-slices=8 / scenecut=40 / no-hist-scenecut / radl=0 / no-splice / no-intra-refresh / ctu=64 / min-cu-size=8 / no-rect / no-amp / max-tu-size=32 / tu-inter-depth=1 / tu-intra-depth=1 / limit-tu=0 / rdoq-level=0 / dynamic-rd=0.00 / no-ssim-rd / signhide / no-tskip / nr-intra=0 / nr-inter=0 / no-constrained-intra / strong-intra-smoothing / max-merge=3 / limit-refs=1 / no-limit-modes / me=1 / subme=2 / merange=57 / temporal-mvp / no-frame-dup / no-hme / weightp / no-weightb / no-analyze-src-pics / deblock=0:0 / sao / no-sao-non-deblock / rd=3 / selective-sao=4 / early-skip / rskip / no-fast-intra / no-tskip-fast / no-cu-lossless / b-intra / no-splitrd-skip / rdpenalty=0 / psy-rd=2.00 / psy-rdoq=0.00 / no-rd-refine / no-lossless / cbqpoffs=0 / crqpoffs=0 / rc=crf / crf=18.0 / qcomp=0.60 / qpstep=4 / stats-write=0 / stats-read=0 / ipratio=1.40 / pbratio=1.30 / aq-mode=3 / aq-strength=0.50 / cutree / zone-count=0 / no-strict-cbr / qg-size=32 / no-rc-grain / qpmax=69 / qpmin=0 / no-const-vbv / sar=1 / overscan=0 / videoformat=5 / range=0 / colorprim=9 / transfer=16 / colormatrix=9 / chromaloc=1 / chromaloc-top=2 / chromaloc-bottom=2 / display-window=0 / master-display=G(13250,34500)B(7500,3000)R(34000,16000)WP(15635,16450)L(10000000,1) / cll=1008,337 / min-luma=0 / max-luma=1023 / log2-max-poc-lsb=8 / vui-timing-info / vui-hrd-info / slices=1 / no-opt-qp-pps / no-opt-ref-list-length-pps / no-multi-pass-opt-rps / scenecut-bias=0.05 / no-opt-cu-delta-qp / no-aq-motion / hdr10 / hdr10-opt / no-dhdr10-opt / no-idr-recovery-sei / analysis-reuse-level=0 / analysis-save-reuse-level=0 / analysis-load-reuse-level=0 / scale-factor=0 / refine-intra=0 / refine-inter=0 / refine-mv=1 / refine-ctu-distortion=0 / no-limit-sao / ctu-info=0 / no-lowpass-dct / refine-analysis-type=0 / copy-pic=1 / max-ausize-factor=1.0 / no-dynamic-refine / no-single-sei / no-hevc-aq / no-svt / no-field / qp-adaptation-range=1.00 / scenecut-aware-qp=0conformance-window-offsets / right=0 / bottom=0 / decoder-max-rate=0 / no-vbv-live-multi-pass / no-mcstf / no-sbrc
Language : Italian
Default : Yes
Forced : No
Color range : Limited
Color primaries : BT.2020
Transfer characteristics : PQ
Matrix coefficients : BT.2020 non-constant
Mastering display color primaries : Display P3
Mastering display luminance : min: 0.0001 cd/m2, max: 1000 cd/m2
Maximum Content Light Level : 1008 cd/m2
Maximum Frame-Average Light Level : 337 cd/m2

Audio #1
ID : 2
Format : AC-3
Format/Info : Audio Coding 3
Commercial name : Dolby Digital
Codec ID : A_AC3
Duration : 1 h 50 min
Bit rate mode : Constant
Bit rate : 640 kb/s
Channel(s) : 6 channels
Channel layout : L R C LFE Ls Rs
Sampling rate : 48.0 kHz
Frame rate : 31.250 FPS (1536 SPF)
Compression mode : Lossy
Stream size : 507 MiB (11%)
Title : Italiano AC-3 5.1
Language : Italian
Service kind : Complete Main
Default : Yes
Forced : No

Audio #2
ID : 3
Format : AC-3
Format/Info : Audio Coding 3
Commercial name : Dolby Digital
Codec ID : A_AC3
Duration : 1 h 50 min
Bit rate mode : Constant
Bit rate : 640 kb/s
Channel(s) : 6 channels
Channel layout : L R C LFE Ls Rs
Sampling rate : 48.0 kHz
Frame rate : 31.250 FPS (1536 SPF)
Compression mode : Lossy
Stream size : 507 MiB (11%)
Title : English AC-3 5.1
Language : English
Service kind : Complete Main
Default : No
Forced : No

Text #1
ID : 4
Format : UTF-8
Codec ID : S_TEXT/UTF8
Codec ID/Info : UTF-8 Plain Text
Duration : 1 h 39 min
Bit rate : 3 b/s
Frame rate : 0.007 FPS
Count of elements : 43
Stream size : 2.55 KiB (0%)
Title : Italiano Forced
Language : Italian
Default : Yes
Forced : No

Text #2
ID : 5
Format : UTF-8
Codec ID : S_TEXT/UTF8
Codec ID/Info : UTF-8 Plain Text
Duration : 1 h 48 min
Bit rate : 62 b/s
Frame rate : 0.234 FPS
Count of elements : 1526
Stream size : 49.8 KiB (0%)
Title : Italiano
Language : Italian
Default : No
Forced : No

Text #3
ID : 6
Format : UTF-8
Codec ID : S_TEXT/UTF8
Codec ID/Info : UTF-8 Plain Text
Duration : 1 h 40 min
Bit rate : 71 b/s
Frame rate : 0.282 FPS
Count of elements : 1699
Stream size : 52.8 KiB (0%)
Title : English
Language : English
Default : No
Forced : No