PXT24

PXT24

The.Garfield.Movie.2024.1080p.AMZN.WEB-DL.H.264-EniaHD
  • Category
    : Movies
  • Type
    : HD
  • Language
    : English
  • Total size
    : 6.60 GB
  • Date uploaded
    : 09 Jul ,2024

The.Garfield.Movie.2024.1080p.AMZN.WEB-DL.H.264-EniaHD

https://www.imdb.com/title/tt5779228

Video: MPEG-4 AVC, 1920x1040 (1.85:1), 23.976 fps, 7880 kbps
Audio 1: RUS E-AC-3, 5.1, 48 kHz, 448 kbps - DUB
Audio 2: UKR AC-3, 5.1, 48 kHz, 384 kbps - DUB
Audio 3: ENG E-AC-3, 5.1, 48 kHz, 640 kbps - English
Subtitles: Russian (Forced, Full), English (Full, SDH), Arabic, Chinese, French, German, Hebrew, Italian, Korean, Portuguese, Spanish, Ukrainian (Forced, Full)

Code: General
Unique ID : 300460750701866083714631335812814162003 (0xE20AA2BC835020846003406D1D8D4853)
Complete name : The.Garfield.Movie.2024.1080p.AMZN.WEB-DL.H.264-EniaHD.mkv
Format : Matroska
Format version : Version 4
File size : 6.60 GiB
Duration : 1 h 40 min
Overall bit rate : 9 356 kb/s
Frame rate : 23.976 FPS
Movie name : The Garfield Movie (2024) - EniaHD
Writing application : mkvmerge v57.0.0 ('Till The End') 64-bit
Writing library : libebml v1.4.2 + libmatroska v1.6.4

Video
ID : 1
Format : AVC
Format/Info : Advanced Video Codec
Format profile : High@L4
Format settings : CABAC / 4 Ref Frames
Format settings, CABAC : Yes
Format settings, Reference fra : 4 frames
Codec ID : V_MPEG4/ISO/AVC
Duration : 1 h 40 min
Bit rate mode : Constant
Bit rate : 7 880 kb/s
Nominal bit rate : 10 000 kb/s
Width : 1 920 pixels
Height : 1 040 pixels
Display aspect ratio : 1.85:1
Frame rate mode : Constant
Frame rate : 23.976 (24000/1001) FPS
Color space : YUV
Chroma subsampling : 4:2:0
Bit depth : 8 bits
Scan type : Progressive
Bits/(Pixel*Frame) : 0.165
Stream size : 5.56 GiB (84%)
Default : Yes
Forced : No
Color range : Limited
Color primaries : BT.709
Transfer characteristics : BT.709
Matrix coefficients : BT.709

Audio #1
ID : 2
Format : E-AC-3
Format/Info : Enhanced AC-3
Commercial name : Dolby Digital Plus
Codec ID : A_EAC3
Duration : 1 h 40 min
Bit rate mode : Constant
Bit rate : 448 kb/s
Channel(s) : 6 channels
Channel layout : L R C LFE Ls Rs
Sampling rate : 48.0 kHz
Frame rate : 31.250 FPS (1536 SPF)
Compression mode : Lossy
Stream size : 324 MiB (5%)
Title : MovieDalen
Language : Russian
Service kind : Complete Main
Default : Yes
Forced : No

Audio #2
ID : 3
Format : AC-3
Format/Info : Audio Coding 3
Commercial name : Dolby Digital
Codec ID : A_AC3
Duration : 1 h 40 min
Bit rate mode : Constant
Bit rate : 384 kb/s
Channel(s) : 6 channels
Channel layout : L R C LFE Ls Rs
Sampling rate : 48.0 kHz
Frame rate : 31.250 FPS (1536 SPF)
Compression mode : Lossy
Stream size : 277 MiB (4%)
Title : LeDoyen
Language : Ukrainian
Service kind : Complete Main
Default : No
Forced : No

Audio #3
ID : 4
Format : E-AC-3
Format/Info : Enhanced AC-3
Commercial name : Dolby Digital Plus
Codec ID : A_EAC3
Duration : 1 h 40 min
Bit rate mode : Constant
Bit rate : 640 kb/s
Channel(s) : 6 channels
Channel layout : L R C LFE Ls Rs
Sampling rate : 48.0 kHz
Frame rate : 31.250 FPS (1536 SPF)
Compression mode : Lossy
Stream size : 462 MiB (7%)
Title : English
Language : English
Service kind : Complete Main
Default : No
Forced : No

Text #1
ID : 5
Format : UTF-8
Codec ID : S_TEXT/UTF8
Codec ID/Info : UTF-8 Plain Text
Duration : 1 h 36 min
Bit rate : 3 b/s
Frame rate : 0.011 FPS
Count of elements : 65
Stream size : 2.52 KiB (0%)
Title : Russian (Forced)
Language : Russian
Default : Yes
Forced : No

Text #2
ID : 6
Format : UTF-8
Codec ID : S_TEXT/UTF8
Codec ID/Info : UTF-8 Plain Text
Duration : 1 h 39 min
Bit rate : 110 b/s
Frame rate : 0.247 FPS
Count of elements : 1470
Stream size : 80.1 KiB (0%)
Title : Russian (iTunes)
Language : Russian
Default : No
Forced : No

Text #3
ID : 7
Format : UTF-8
Codec ID : S_TEXT/UTF8
Codec ID/Info : UTF-8 Plain Text
Duration : 1 h 38 min
Bit rate : 62 b/s
Frame rate : 0.232 FPS
Count of elements : 1364
Stream size : 45.3 KiB (0%)
Title : English
Language : English
Default : No
Forced : No

Text #4
ID : 8
Format : UTF-8
Codec ID : S_TEXT/UTF8
Codec ID/Info : UTF-8 Plain Text
Duration : 1 h 39 min
Bit rate : 75 b/s
Frame rate : 0.309 FPS
Count of elements : 1841
Stream size : 54.6 KiB (0%)
Title : English (SDH)
Language : English
Default : No
Forced : No

Text #5
ID : 9
Format : UTF-8
Codec ID : S_TEXT/UTF8
Codec ID/Info : UTF-8 Plain Text
Duration : 1 h 39 min
Bit rate : 95 b/s
Frame rate : 0.245 FPS
Count of elements : 1460
Stream size : 69.6 KiB (0%)
Title : Arabic
Language : Arabic
Default : No
Forced : No

Text #6
ID : 10
Format : UTF-8
Codec ID : S_TEXT/UTF8
Codec ID/Info : UTF-8 Plain Text
Duration : 1 h 39 min
Bit rate : 52 b/s
Frame rate : 0.232 FPS
Count of elements : 1384
Stream size : 38.4 KiB (0%)
Title : Chinese
Language : Chinese-cmn-Hans
Default : No
Forced : No

Text #7
ID : 11
Format : UTF-8
Codec ID : S_TEXT/UTF8
Codec ID/Info : UTF-8 Plain Text
Duration : 1 h 39 min
Bit rate : 51 b/s
Frame rate : 0.197 FPS
Count of elements : 1175
Stream size : 37.2 KiB (0%)
Title : French
Language : French
Default : No
Forced : No

Text #8
ID : 12
Format : UTF-8
Codec ID : S_TEXT/UTF8
Codec ID/Info : UTF-8 Plain Text
Duration : 1 h 39 min
Bit rate : 56 b/s
Frame rate : 0.220 FPS
Count of elements : 1309
Stream size : 41.3 KiB (0%)
Title : German
Language : German
Default : No
Forced : No

Text #9
ID : 13
Format : UTF-8
Codec ID : S_TEXT/UTF8
Codec ID/Info : UTF-8 Plain Text
Duration : 1 h 39 min
Bit rate : 91 b/s
Frame rate : 0.238 FPS
Count of elements : 1416
Stream size : 66.6 KiB (0%)
Title : Hebrew
Language : Hebrew
Default : No
Forced : No

Text #10
ID : 14
Format : UTF-8
Codec ID : S_TEXT/UTF8
Codec ID/Info : UTF-8 Plain Text
Duration : 1 h 39 min
Bit rate : 59 b/s
Frame rate : 0.234 FPS
Count of elements : 1393
Stream size : 43.1 KiB (0%)
Title : Italian
Language : Italian
Default : No
Forced : No

Text #11
ID : 15
Format : UTF-8
Codec ID : S_TEXT/UTF8
Codec ID/Info : UTF-8 Plain Text
Duration : 1 h 39 min
Bit rate : 55 b/s
Frame rate : 0.228 FPS
Count of elements : 1359
Stream size : 40.3 KiB (0%)
Title : Korean
Language : Korean
Default : No
Forced : No

Text #12
ID : 16
Format : UTF-8
Codec ID : S_TEXT/UTF8
Codec ID/Info : UTF-8 Plain Text
Duration : 1 h 39 min
Bit rate : 56 b/s
Frame rate : 0.235 FPS
Count of elements : 1400
Stream size : 41.4 KiB (0%)
Title : Portuguese
Language : Portuguese (BR)
Default : No
Forced : No

Text #13
ID : 17
Format : UTF-8
Codec ID : S_TEXT/UTF8
Codec ID/Info : UTF-8 Plain Text
Duration : 1 h 39 min
Bit rate : 59 b/s
Frame rate : 0.239 FPS
Count of elements : 1427
Stream size : 43.4 KiB (0%)
Title : Spanish
Language : Spanish (Latin America)
Default : No
Forced : No

Text #14
ID : 18
Format : UTF-8
Codec ID : S_TEXT/UTF8
Codec ID/Info : UTF-8 Plain Text
Duration : 1 h 39 min
Bit rate : 94 b/s
Frame rate : 0.236 FPS
Count of elements : 1407
Stream size : 69.0 KiB (0%)
Title : Ukrainian
Language : Ukrainian
Default : No
Forced : No

Text #15
ID : 19
Format : UTF-8
Codec ID : S_TEXT/UTF8
Codec ID/Info : UTF-8 Plain Text
Duration : 59 min 52 s
Bit rate : 0 b/s
Frame rate : 0.001 FPS
Count of elements : 5
Stream size : 226 Bytes (0%)
Title : Ukrainian (Forced)
Language : Ukrainian
Default : No
Forced : No

Menu
00:00:00.000 : en:Chapter 1
00:04:59.424 : en:Chapter 2
00:12:21.157 : en:Chapter 3
00:17:37.223 : en:Chapter 4
00:23:54.517 : en:Chapter 5
00:27:57.093 : en:Chapter 6
00:36:30.357 : en:Chapter 7
00:42:51.446 : en:Chapter 8
00:49:45.485 : en:Chapter 9
00:53:52.857 : en:Chapter 10
00:59:21.478 : en:Chapter 11
01:06:42.669 : en:Chapter 12
01:11:20.697 : en:Chapter 13
01:18:50.730 : en:Chapter 14
01:25:20.412 : en:Chapter 15
01:31:39.744 : en:Chapter 16
thumb-90dda743de898b498523d028c553ddc6 thumb-b096c5f0e97bcda8f03d512735813f9c thumb-f6f901a42221f75515d68a0a33e07188
thumb-8a0d20df0d1a7ebc318669389cc351ee thumb-c38cbcc7de901da0712bd5b2c846080e thumb-e309b57405434c005313b4dbfdccca85