PXT24

PXT24

The Killer (2023) FullHD 1080p.H264 Ita Eng AC3 5.1 Multisub - realDMDJ DDL_Ita
  • Category
    : Movies
  • Type
    : HD
  • Language
    : English
  • Total size
    : 2.90 GB
  • Date uploaded
    : 11 Nov ,2023

1real-DMDJ
BD-The-Killer
Las1XUT
The Killer, film diretto da David Fincher, si svolge a Parigi e racconta la storia di un uomo dal carattere solitario, senza scrupoli, freddo e minuzioso.
Il Killer (Michael Fassbender), un uomo senza nome, si direbbe l’assassino perfetto, soprattutto perché sa attendere silenziosamente nell'ombra, studiando con attenzione il suo prossimo bersaglio. È un calcolatore privo di emozioni. Ma il suo mantra infallibile viene destabilizzato da chi cerca di eliminarlo.
Quando viene profanata la sua casa che lui vive come santuario della sua identità, la sua mente inizia a giocare brutti scherzi. Infatti, il Killer perde la pazienza e sembra impazzire. La sua metodica freddezza sta scemando per lasciare posto a una coscienza, cosa che porterebbe non pochi problemi alla sua professione di sicario.
È così che l'assassino professionista, che finora ha vissuto in un mondo privo di morale, si ritrova solo, armato e con la psiche che inizia a vacillare. Lascerà la Francia per attraversare la Repubblica Dominicana e gli Stati Uniti, pronto a eliminare con ogni mezzo chiunque disturbi la sua pace
imdb-new
LhG4VYC
Michael Fassbender, Tilda Swinton, Charles Parnell, Arliss Howard, Lacey Dover, Monique Ganderton, Suzette Lange, Kellan Rhude, Monika Gossmann, Brandon Morales, Kerry O'Malley, Sala Baker

usWfuQM

TITOLO : The Killer
REGIA : David Fincher
ANNO :   2023
PAESE : USA, Francia
DURATA : 119 Min.
GENERE : Azione, Giallo
DIMENSIONE : 2.89 Gb

Trailer
A-You-Tube-Logo-mod-280

Screenshots
MEQ1VP0_t

MEQ1VP2_t

MEQ1VP4_t

MEQ1VP1_t

ar2

Dati-Tecnici
General
Unique ID                                : 128984558391180088247420492684433222243 (0x610985B7DF3A1C78EBB9E65C72C6EA63)
Complete name                            : The Killer 2023 FullHD 1080p.H264 Ita Eng AC3 5.1 Multisub realDMDJ.mkv
Format                                   : Matroska
Format version                           : Version 4
File size                                : 2.90 GiB
Duration                                 : 1 h 59 min
Overall bit rate                         : 3 473 kb/s
Frame rate                               : 24.000 FPS
Movie name                               : Encoded By realDMDJ
Encoded date                             : 2023-11-10 18:38:44 UTC
Writing application                      : mkvmerge v56.1.0 ('My Friend') 64-bit
Writing library                          : libebml v1.4.2 + libmatroska v1.6.4

Video
ID                                       : 1
Format                                   : AVC
Format/Info                              : Advanced Video Codec
Format profile                           : [email protected]
Format settings                          : CABAC / 4 Ref Frames
Format settings, CABAC                   : Yes
Format settings, Reference frames        : 4 frames
Codec ID                                 : V_MPEG4/ISO/AVC
Duration                                 : 1 h 59 min
Bit rate                                 : 2 255 kb/s
Width                                    : 1 920 pixels
Height                                   : 816 pixels
Display aspect ratio                     : 2.35:1
Frame rate mode                          : Constant
Frame rate                               : 24.000 FPS
Color space                              : YUV
Chroma subsampling                       : 4:2:0
Bit depth                                : 8 bits
Scan type                                : Progressive
Bits/(Pixel*Frame)                       : 0.060
Stream size                              : 1.88 GiB (65%)
Title                                    : realDMDJ
Writing library                          : x264 core 167
Default                                  : Yes
Forced                                   : No

Audio #1
ID                                       : 2
Format                                   : AC-3
Format/Info                              : Audio Coding 3
Commercial name                          : Dolby Digital
Codec ID                                 : A_AC3
Duration                                 : 1 h 59 min
Bit rate mode                            : Constant
Bit rate                                 : 640 kb/s
Channel(s)                               : 6 channels
Channel layout                           : L R C LFE Ls Rs
Sampling rate                            : 48.0 kHz
Frame rate                               : 31.250 FPS (1536 SPF)
Compression mode                         : Lossy
Stream size                              : 547 MiB (18%)
Title                                    : Surround
Language                                 : Italian
Service kind                             : Complete Main
Default                                  : Yes
Forced                                   : No

Audio #2
ID                                       : 3
Format                                   : AC-3
Format/Info                              : Audio Coding 3
Commercial name                          : Dolby Digital
Codec ID                                 : A_AC3
Duration                                 : 1 h 59 min
Bit rate mode                            : Constant
Bit rate                                 : 576 kb/s
Channel(s)                               : 6 channels
Channel layout                           : L R C LFE Ls Rs
Sampling rate                            : 48.0 kHz
Frame rate                               : 31.250 FPS (1536 SPF)
Compression mode                         : Lossy
Stream size                              : 492 MiB (17%)
Title                                    : Surround
Language                                 : English
Service kind                             : Complete Main
Default                                  : No
Forced                                   : No

Text #1
ID                                       : 4
Format                                   : UTF-8
Codec ID                                 : S_TEXT/UTF8
Codec ID/Info                            : UTF-8 Plain Text
Duration                                 : 1 h 49 min
Bit rate                                 : 0 b/s
Frame rate                               : 0.002 FPS
Count of elements                        : 16
Stream size                              : 596 Bytes (0%)
Title                                    : Forced
Language                                 : Italian
Default                                  : Yes
Forced                                   : No

Text #2
ID                                       : 5
Format                                   : UTF-8
Codec ID                                 : S_TEXT/UTF8
Codec ID/Info                            : UTF-8 Plain Text
Duration                                 : 1 h 50 min
Bit rate                                 : 35 b/s
Frame rate                               : 0.134 FPS
Count of elements                        : 884
Stream size                              : 28.8 KiB (0%)
Title                                    : Regular
Language                                 : Italian
Default                                  : No
Forced                                   : No

Text #3
ID                                       : 6
Format                                   : UTF-8
Codec ID                                 : S_TEXT/UTF8
Codec ID/Info                            : UTF-8 Plain Text
Duration                                 : 1 h 57 min
Bit rate                                 : 53 b/s
Frame rate                               : 0.192 FPS
Count of elements                        : 1356
Stream size                              : 45.7 KiB (0%)
Language                                 : English
Default                                  : No
Forced                                   : No

Text #4
ID                                       : 7
Format                                   : UTF-8
Codec ID                                 : S_TEXT/UTF8
Codec ID/Info                            : UTF-8 Plain Text
Duration                                 : 1 h 50 min
Bit rate                                 : 42 b/s
Frame rate                               : 0.131 FPS
Count of elements                        : 863
Stream size                              : 34.2 KiB (0%)
Language                                 : French
Default                                  : No
Forced                                   : No

Text #5
ID                                       : 8
Format                                   : UTF-8
Codec ID                                 : S_TEXT/UTF8
Codec ID/Info                            : UTF-8 Plain Text
Duration                                 : 1 h 50 min
Bit rate                                 : 44 b/s
Frame rate                               : 0.130 FPS
Count of elements                        : 859
Stream size                              : 35.5 KiB (0%)
Language                                 : German
Default                                  : No
Forced                                   : No

Text #6
ID                                       : 9
Format                                   : UTF-8
Codec ID                                 : S_TEXT/UTF8
Codec ID/Info                            : UTF-8 Plain Text
Duration                                 : 1 h 50 min
Bit rate                                 : 39 b/s
Frame rate                               : 0.135 FPS
Count of elements                        : 895
Stream size                              : 31.6 KiB (0%)
Language                                 : Spanish
Default                                  : No
Forced                                   : No

Menu
00:00:00.000                             : en:Capitolo 01
01:51:17.450                             : en:Capitolo 02