PXT24

PXT24

The Mole (2022) Season - 1 Complete 1080p WEBDL [ProtonMovies]
  • Category
    : TV
  • Type
    : HD
  • Language
    : English
  • Total size
    : 13.00 GB
  • Date uploaded
    : 09 Jul ,2024

The Mole (2022) Season - 1 Complete 1080p WEBDL [ProtonMovies]

Proudly Provided by ProtonMovies

Info -
IMDB - imdb.com/title/tt21822078

Plot -
It follows twelve players as they work together in challenges to add money to a pot that only one of them will win.

ProtonMovies Profile --> 1337x.to/user/ProtonMovies

DON'T FORGET TO SEED!!! SEEDING ENABLES US TO PROVIDE QUALITY SHARES

Language :-
1. English


Screenshots :-
Screenshot-Proton-Movies-1
Screenshot-Proton-Movies-2
Screenshot-Proton-Movies-3
Screenshot-Proton-Movies-4


File Info :

Quote:

General
Complete name : The Mole S01E01 [ProtonMovies].mkv
Format : Matroska
Format version : Version 4
File size : 1.67 GiB
Duration : 46 min 48 s
Overall bit rate : 5 096 kb/s
Frame rate : 25.000 FPS
Movie name : The Mole S01E01 [ProtonMovies]
Description : Twelve crafty competitors gather in Australia's ancient Daintree Rainforest to begin the game, with no idea which of them might be plotting sabotage.
Writing application : Lavf60.3.100
Writing library : Lavf60.3.100
Cover : Yes
ErrorDetectionType : Per level 1
Attachments : cover.png
DATE : 2022
EPISODE_ID : 1
SEASON_NUMBER : 1
SHOW : The Mole

Video
ID : 1
Format : HEVC
Format/Info : High Efficiency Video Coding
Format profile : Main 10@L4@Main
HDR format : SMPTE ST 2086, HDR10 compatible
Codec ID : V_MPEGH/ISO/HEVC
Duration : 46 min 48 s
Bit rate : 4 355 kb/s
Width : 1 920 pixels
Height : 1 080 pixels
Display aspect ratio : 16:9
Frame rate mode : Constant
Frame rate : 25.000 FPS
Color space : YUV
Chroma subsampling : 4:2:0 (Type 2)
Bit depth : 10 bits
Bits/(Pixel*Frame) : 0.084
Stream size : 1.42 GiB (85%)
Title : 265:fmt=265:moovts=-1:fps=25:deps:par=auto:hdr=none:[email protected]
Default : Yes
Forced : No
Color range : Limited
Color primaries : BT.2020
Transfer characteristics : PQ
Matrix coefficients : BT.2020 non-constant
Mastering display color primaries : Display P3
Mastering display luminance : min: 0.0001 cd/m2, max: 1000 cd/m2
Maximum Content Light Level : 3916 cd/m2
Maximum Frame-Average Light Level : 328 cd/m2
VENDOR_ID : [0][0][0][0]

Audio
ID : 2
Format : E-AC-3
Format/Info : Enhanced AC-3
Commercial name : Dolby Digital Plus
Codec ID : A_EAC3
Duration : 46 min 48 s
Bit rate mode : Constant
Bit rate : 640 kb/s
Channel(s) : 6 channels
Channel layout : L R C LFE Ls Rs
Sampling rate : 48.0 kHz
Frame rate : 31.250 FPS (1536 SPF)
Bit depth : 32 bits
Compression mode : Lossy
Stream size : 214 MiB (13%)
Title : English [Original]
Language : English
Service kind : Complete Main
Default : Yes
Forced : No
VENDOR_ID : [0][0][0][0]
Dialog Normalization : -26 dB
compr : -0.28 dB
dialnorm_Average : -26 dB
dialnorm_Minimum : -26 dB
dialnorm_Maximum : -26 dB

Text
ID : 3
Format : UTF-8
Codec ID : S_TEXT/UTF8
Codec ID/Info : UTF-8 Plain Text
Duration : 45 min 1 s
Title : English [CC]
Writing library : Lavc60.3.100 srt
Language : English
Default : Yes
Forced : No





The Mole (2022) Season - 1 Complete 1080p WEBDL [ProtonMovies]