PXT24

PXT24

The.Noite.com.Danilo.Gentili.2024.07.09.720p.WEB.x264-Skylane77.mp4
  • Category
    : TV
  • Type
    : HD
  • Language
    : Portuguese
  • Total size
    : 350.30 MB
  • Date uploaded
    : 10 Jul ,2024

Fátima Scarpa

The-Noite-com-Danilo-Gentili-2024-07-09-720p-WEB-x264-Skylane77

--
General
Format: MPEG-4
Format profile: Base Media
Codec ID: isom (isom/iso2/avc1/mp41)
File size: 350 MiB
Duration: 51 min 24 s
Overall bit rate mode: Variable
Overall bit rate: 953 kb/s
Frame rate: 29.970 FPS
Writing application: Lavf61.1.100

Video
ID: 1
Format: AVC
Format/Info: Advanced Video Codec
Format profile: [email protected]
Format settings: CABAC / 9 Ref Frames
Format settings, CABAC: Yes
Format settings, Reference frames: 9 frames
Codec ID: avc1
Codec ID/Info: Advanced Video Coding
Duration: 51 min 24 s
Source duration: 51 min 24 s
Bit rate: 778 kb/s
Maximum bit rate: 815 kb/s
Width: 1 280 pixels
Height: 720 pixels
Display aspect ratio: 16:9
Frame rate mode: Constant
Frame rate: 29.970 (30000/1001) FPS
Color space: YUV
Chroma subsampling: 4:2:0
Bit depth: 8 bits
Scan type: Progressive
Bits/(Pixel*Frame): 0.028
Stream size: 286 MiB (82%)
Source stream size: 300 MiB (86%)
Writing library: x264 core 164 r3108 31e19f9
Encoding settings: cabac=1 / ref=9 / deblock=1:0:0 / analyse=0x3:0x133 / me=umh / subme=10 / psy=1 / psy_rd=1.00:0.00 / mixed_ref=1 / me_range=24 / chroma_me=1 / trellis=2 / 8x8dct=1 / cqm=0 / deadzone=21,11 / fast_pskip=1 / chroma_qp_offset=-2 / threads=12 / lookahead_threads=2 / sliced_threads=0 / nr=0 / decimate=1 / interlaced=0 / bluray_compat=0 / constrained_intra=0 / bframes=8 / b_pyramid=2 / b_adapt=2 / b_bias=0 / direct=3 / weightb=1 / open_gop=0 / weightp=2 / keyint=250 / keyint_min=25 / scenecut=40 / intra_refresh=0 / rc_lookahead=60 / rc=crf / mbtree=1 / crf=25.0 / qcomp=0.60 / qpmin=0 / qpmax=69 / qpstep=4 / ip_ratio=1.40 / aq=1:1.00
Color range: Limited
Color primaries: BT.709
Transfer characteristics: BT.709
Matrix coefficients: BT.709
Codec configuration box: avcC

Audio
ID: 2
Format: AAC LC
Format/Info: Advanced Audio Codec Low Complexity
Codec ID: mp4a-40-2
Duration: 51 min 24 s
Bit rate mode: Variable
Bit rate: 128 kb/s
Maximum bit rate: 130 kb/s
Channel(s): 2 channels
Channel layout: L R
Sampling rate: 44.1 kHz
Frame rate: 43.066 FPS (1024 SPF)
Compression mode: Lossy
Stream size: 47.2 MiB (13%)
Default: Yes
Alternate group: 1