PXT24

PXT24

The Secret Life Of Pets 2016 DVDRiP AC3 -Gypsy
  • Category
    : Movies
  • Type
    : DVD
  • Language
    : English
  • Total size
    : 4.60 GB
  • Date uploaded
    : 31 Mar ,2024

The Secret Life Of Pets 2016 DVDRiP AC3 -Gypsy

5f8r-TQq42n-QVGGes9-SCV9-An-D0-II

The quiet life of a terrier named Max is upended when his owner takes in Duke, a stray whom Max instantly dislikes.

SCREENSHOTS

vlcsnap-2024-03-30-20h20m25s786

vlcsnap-2024-03-30-20h20m28s116

vlcsnap-2024-03-30-20h20m29s726

vlcsnap-2024-03-30-20h20m30s928

vlcsnap-2024-03-30-20h20m32s920

INFO

Format : Matroska
Format version : Version 2
File size : 4.63 GiB
Duration : 1 h 26 min
Overall bit rate mode : Variable
Overall bit rate : 7 662 kb/s
Frame rate : 23.976 FPS
Encoded date : 2024-03-30 23:26:51 UTC
Writing application : MakeMKV v1.17.6 win(x64-release)
Writing library : libmakemkv v1.17.6 (1.3.10/1.5.2) win(x64-release)

Video
ID : 1
ID in the original source medium : 224 (0xE0)
Format : MPEG Video
Format version : Version 2
Format profile : Main@Main
Format settings : CustomMatrix / BVOP
Format settings, BVOP : Yes
Format settings, Matrix : Custom
Format settings, GOP : Variable
Codec ID : V_MPEG2
Codec ID/Info : MPEG 1 or 2 Video
Duration : 1 h 26 min
Bit rate mode : Variable
Bit rate : 7 209 kb/s
Maximum bit rate : 9 800 kb/s
Width : 720 pixels
Height : 480 pixels
Display aspect ratio : 16:9
Frame rate mode : Variable
Frame rate : 23.976 FPS
Color space : YUV
Chroma subsampling : 4:2:0
Bit depth : 8 bits
Scan type : Progressive
Scan order : 2:3 Pulldown
Compression mode : Lossy
Bits/(Pixel*Frame) : 0.870
Time code of first frame : 00:59:59;00
Time code source : Group of pictures header
Stream size : 4.35 GiB (94%)
Language : English
Default : No
Forced : No
Original source medium : DVD-Video

Audio
ID : 2
ID in the original source medium : 189 (0xBD)128 (0x80)
Format : AC-3
Format/Info : Audio Coding 3
Commercial name : Dolby Digital
Codec ID : A_AC3
Duration : 1 h 26 min
Bit rate mode : Constant
Bit rate : 448 kb/s
Channel(s) : 6 channels
Channel layout : L R C LFE Ls Rs
Sampling rate : 48.0 kHz
Frame rate : 31.250 FPS (1536 SPF)
Compression mode : Lossy
Stream size : 277 MiB (6%)
Title : Surround 5.1
Language : English
Service kind : Complete Main
Default : Yes
Forced : No
Original source medium : DVD-Video

Menu
00:00:00.000 : en:Chapter 01
00:05:05.838 : en:Chapter 02
00:09:24.063 : en:Chapter 03
00:13:18.831 : en:Chapter 04
00:18:03.782 : en:Chapter 05
00:22:14.533 : en:Chapter 06
00:28:51.930 : en:Chapter 07
00:32:54.839 : en:Chapter 08
00:36:55.913 : en:Chapter 09
00:42:27.411 : en:Chapter 10
00:44:46.884 : en:Chapter 11
00:50:21.218 : en:Chapter 12
00:54:45.482 : en:Chapter 13
00:59:34.103 : en:Chapter 14
01:02:36.619 : en:Chapter 15
01:07:12.361 : en:Chapter 16
01:13:06.915 : en:Chapter 17
01:16:04.593 : en:Chapter 18
01:18:48.056 : en:Chapter 19
01:19:58.827 : en:Chapter 20