PXT24

PXT24

The Smurfs 2 2013 1080p BluRay DD+ 7.1 x265-edge2020
  • Category
    : Movies
  • Type
    : HEVC/x265
  • Language
    : English
  • Total size
    : 3.80 GB
  • Date uploaded
    : 08 Jul ,2024

EeyR2 Quote: Source - The.Smurfs.2.2013.BluRay.1080p.TrueHD.Atmos.7.1.AVC.HYBRID.REMUX-FraMeSToR

ca2eb09ef398ca50aa4882a62828c1c9456fc0fb9d32d152d965eb52878e16b0627b5d829bd2621a306486b3cb7697d4bdce4e6665b18c31fca63182fc9cb016fb71cf9a24369bce19227aacd1aef35cef413327c2ec44178b6f3fb69aba9683

General
Unique ID : 163347445129204243982834713569598419122 (0x7AE392D6E1F33E4E975C71848C94B0B2)
Complete name : The.Smurfs.2.2013.1080p.BluRay.DDP.7.1.x265-EDGE2020.mkv
Format : Matroska
Format version : Version 4
File size : 3.78 GiB
Duration : 1 h 44 min
Overall bit rate : 5 159 kb/s
Encoded date : UTC 2024-03-31 01:09:52
Writing application : mkvmerge v83.0 ('Circle Of Friends') 64-bit
Writing library : libebml v1.4.5 + libmatroska v1.7.1

Video
ID : 1
Format : HEVC
Format/Info : High Efficiency Video Coding
Format profile : Main 10@L4@Main
Codec ID : V_MPEGH/ISO/HEVC
Duration : 1 h 44 min
Bit rate : 4 121 kb/s
Width : 1 920 pixels
Height : 1 032 pixels
Display aspect ratio : 1.85:1
Frame rate mode : Constant
Frame rate : 23.976 (24000/1001) FPS
Color space : YUV
Chroma subsampling : 4:2:0
Bit depth : 10 bits
Bits/(Pixel*Frame) : 0.087
Stream size : 3.02 GiB (80%)
Writing library : x265 3.5+156+14-df2e4c31e:[Windows][MSVC 1937][64 bit] 10bit
Encoding settings : cpuid=1111039 / frame-threads=4 / numa-pools=24 / wpp / no-pmode / no-pme / no-psnr / no-ssim / log-level=2 / input-csp=1 / input-res=1920x1032 / interlace=0 / total-frames=150912 / level-idc=0 / high-tier=1 / uhd-bd=0 / ref=4 / no-allow-non-conformance / no-repeat-headers / annexb / no-aud / no-eob / no-eos / no-hrd / info / hash=0 / temporal-layers=0 / open-gop / min-keyint=23 / keyint=250 / gop-lookahead=0 / bframes=4 / b-adapt=2 / b-pyramid / bframe-bias=0 / rc-lookahead=25 / lookahead-slices=4 / scenecut=40 / no-hist-scenecut / radl=0 / no-splice / no-intra-refresh / ctu=64 / min-cu-size=8 / rect / no-amp / max-tu-size=32 / tu-inter-depth=1 / tu-intra-depth=1 / limit-tu=0 / rdoq-level=2 / dynamic-rd=0.00 / no-ssim-rd / signhide / no-tskip / nr-intra=0 / nr-inter=0 / no-constrained-intra / strong-intra-smoothing / max-merge=3 / limit-refs=3 / limit-modes / me=3 / subme=3 / merange=57 / temporal-mvp / no-frame-dup / no-hme / weightp / no-weightb / no-analyze-src-pics / deblock=0:0 / sao / no-sao-non-deblock / rd=4 / selective-sao=4 / no-early-skip / rskip / no-fast-intra / no-tskip-fast / no-cu-lossless / no-b-intra / no-splitrd-skip / rdpenalty=0 / psy-rd=2.00 / psy-rdoq=1.00 / no-rd-refine / no-lossless / cbqpoffs=0 / crqpoffs=0 / rc=crf / crf=21.0 / qcomp=0.60 / qpstep=4 / stats-write=0 / stats-read=0 / ipratio=1.40 / pbratio=1.30 / aq-mode=2 / aq-strength=1.00 / aq-bias-strength=1.00 / cutree / zone-count=0 / no-strict-cbr / qg-size=32 / no-rc-grain / qpmax=69 / qpmin=0 / no-const-vbv / sar=0 / overscan=0 / videoformat=5 / range=0 / colorprim=2 / transfer=2 / colormatrix=2 / chromaloc=0 / display-window=0 / cll=0,0 / min-luma=0 / max-luma=1023 / log2-max-poc-lsb=8 / vui-timing-info / vui-hrd-info / slices=1 / no-opt-qp-pps / no-opt-ref-list-length-pps / no-multi-pass-opt-rps / scenecut-bias=0.05 / no-opt-cu-delta-qp / no-aq-motion / no-hdr10 / no-hdr10-opt / no-dhdr10-opt / no-idr-recovery-sei / analysis-reuse-level=0 / analysis-save-reuse-level=0 / analysis-load-reuse-level=0 / scale-factor=0 / refine-intra=0 / refine-inter=0 / refine-mv=1 / refine-ctu-distortion=0 / no-limit-sao / ctu-info=0 / no-lowpass-dct / refine-analysis-type=0 / copy-pic=1 / max-ausize-factor=1.0 / no-dynamic-refine / no-single-sei / no-hevc-aq / no-svt / no-field / qp-adaptation-range=1.00 / scenecut-aware-qp=0 / conformance-window-offsets / right=0 / bottom=0 / decoder-max-rate=0 / no-vbv-live-multi-pass / no-mcstf / no-sbrc
Default : Yes
Forced : No

Audio
ID : 2
Format : E-AC-3
Format/Info : Enhanced AC-3
Commercial name : Dolby Digital Plus
Codec ID : A_EAC3
Duration : 1 h 44 min
Bit rate mode : Constant
Bit rate : 1 024 kb/s
Channel(s) : 8 channels
Channel layout : L R C LFE Ls Rs Lb Rb
Sampling rate : 48.0 kHz
Frame rate : 31.250 FPS (1536 SPF)
Compression mode : Lossy
Stream size : 768 MiB (20%)
Title : Dolby Digital Plus / 7.1 / 48 kHz / 1024 kbps
Language : English
Service kind : Complete Main
Default : Yes
Forced : No

Text
ID : 3
Format : PGS
Muxing mode : zlib
Codec ID : S_HDMV/PGS
Codec ID/Info : Picture based subtitle format used on BDs/HD-DVDs
Duration : 1 h 44 min
Bit rate : 46.2 kb/s
Count of elements : 4431
Stream size : 34.4 MiB (1%)
Title : SHD
Language : English
Default : Yes
Forced : No

Menu
00:00:00.000 : en:Chapter 01
00:05:00.133 : en:Chapter 02
00:11:12.755 : en:Chapter 03
00:18:14.093 : en:Chapter 04
00:23:18.522 : en:Chapter 05
00:27:54.590 : en:Chapter 06
00:34:25.480 : en:Chapter 07
00:41:09.342 : en:Chapter 08
00:46:10.434 : en:Chapter 09
00:50:59.098 : en:Chapter 10
00:56:47.863 : en:Chapter 11
01:02:33.875 : en:Chapter 12
01:07:06.773 : en:Chapter 13
01:14:10.196 : en:Chapter 14
01:21:05.819 : en:Chapter 15
01:28:24.591 : en:Chapter 16