PXT24

PXT24

The Spy Who Loved Me 1977 1080p BluRay DD+ 5.1 x265-edge2020
  • Category
    : Movies
  • Type
    : HEVC/x265
  • Language
    : English
  • Total size
    : 6.40 GB
  • Date uploaded
    : 08 Jul ,2024

EeyR2 Quote: Source - The.Spy.Who.Loved.Me.1977.BluRay.Remux.1080p.AVC.DTS-HD.MA.5.1-HiFi

385e49ec187c8a7ea18b3e35d00ce18559e2ec89adab7f9ad2549a2f01300808be44887031401bca1f56241f024538fea48e3a8f9440e0ba1c322341e7a5925e85848c4472b8242f63f91909ca26597b1496c3804c7a4428fc000acd1528cf6c

General
Unique ID : 134134134951594520045449139347327477350 (0x64E94B71E73A6F2A5DC81536DFAEE666)
Complete name : The.Spy.Who.Loved.Me.1977.1080p.BluRay.DDP.5.1.x265-EDGE2020.mkv
Format : Matroska
Format version : Version 4
File size : 6.44 GiB
Duration : 2 h 5 min
Overall bit rate : 7 341 kb/s
Encoded date : UTC 2024-04-01 20:06:33
Writing application : mkvmerge v83.0 ('Circle Of Friends') 64-bit
Writing library : libebml v1.4.5 + libmatroska v1.7.1

Video
ID : 1
Format : HEVC
Format/Info : High Efficiency Video Coding
Format profile : Main 10@L4@Main
Codec ID : V_MPEGH/ISO/HEVC
Duration : 2 h 5 min
Bit rate : 6 694 kb/s
Width : 1 920 pixels
Height : 816 pixels
Display aspect ratio : 2.35:1
Frame rate mode : Constant
Frame rate : 23.976 (24000/1001) FPS
Color space : YUV
Chroma subsampling : 4:2:0
Bit depth : 10 bits
Bits/(Pixel*Frame) : 0.178
Stream size : 5.88 GiB (91%)
Writing library : x265 3.5+156+14-df2e4c31e:[Windows][MSVC 1937][64 bit] 10bit
Encoding settings : cpuid=1111039 / frame-threads=4 / numa-pools=24 / wpp / no-pmode / no-pme / no-psnr / no-ssim / log-level=2 / input-csp=1 / input-res=1920x816 / interlace=0 / total-frames=180791 / level-idc=0 / high-tier=1 / uhd-bd=0 / ref=4 / no-allow-non-conformance / no-repeat-headers / annexb / no-aud / no-eob / no-eos / no-hrd / info / hash=0 / temporal-layers=0 / open-gop / min-keyint=23 / keyint=250 / gop-lookahead=0 / bframes=4 / b-adapt=2 / b-pyramid / bframe-bias=0 / rc-lookahead=25 / lookahead-slices=4 / scenecut=40 / no-hist-scenecut / radl=0 / no-splice / no-intra-refresh / ctu=64 / min-cu-size=8 / rect / no-amp / max-tu-size=32 / tu-inter-depth=1 / tu-intra-depth=1 / limit-tu=0 / rdoq-level=2 / dynamic-rd=0.00 / no-ssim-rd / signhide / no-tskip / nr-intra=0 / nr-inter=0 / no-constrained-intra / strong-intra-smoothing / max-merge=3 / limit-refs=3 / limit-modes / me=3 / subme=3 / merange=57 / temporal-mvp / no-frame-dup / no-hme / weightp / no-weightb / no-analyze-src-pics / deblock=0:0 / sao / no-sao-non-deblock / rd=4 / selective-sao=4 / no-early-skip / rskip / no-fast-intra / no-tskip-fast / no-cu-lossless / no-b-intra / no-splitrd-skip / rdpenalty=0 / psy-rd=2.00 / psy-rdoq=1.00 / no-rd-refine / no-lossless / cbqpoffs=0 / crqpoffs=0 / rc=crf / crf=21.0 / qcomp=0.60 / qpstep=4 / stats-write=0 / stats-read=0 / ipratio=1.40 / pbratio=1.30 / aq-mode=2 / aq-strength=1.00 / aq-bias-strength=1.00 / cutree / zone-count=0 / no-strict-cbr / qg-size=32 / no-rc-grain / qpmax=69 / qpmin=0 / no-const-vbv / sar=0 / overscan=0 / videoformat=5 / range=0 / colorprim=2 / transfer=2 / colormatrix=2 / chromaloc=0 / display-window=0 / cll=0,0 / min-luma=0 / max-luma=1023 / log2-max-poc-lsb=8 / vui-timing-info / vui-hrd-info / slices=1 / no-opt-qp-pps / no-opt-ref-list-length-pps / no-multi-pass-opt-rps / scenecut-bias=0.05 / no-opt-cu-delta-qp / no-aq-motion / no-hdr10 / no-hdr10-opt / no-dhdr10-opt / no-idr-recovery-sei / analysis-reuse-level=0 / analysis-save-reuse-level=0 / analysis-load-reuse-level=0 / scale-factor=0 / refine-intra=0 / refine-inter=0 / refine-mv=1 / refine-ctu-distortion=0 / no-limit-sao / ctu-info=0 / no-lowpass-dct / refine-analysis-type=0 / copy-pic=1 / max-ausize-factor=1.0 / no-dynamic-refine / no-single-sei / no-hevc-aq / no-svt / no-field / qp-adaptation-range=1.00 / scenecut-aware-qp=0 / conformance-window-offsets / right=0 / bottom=0 / decoder-max-rate=0 / no-vbv-live-multi-pass / no-mcstf / no-sbrc
Default : Yes
Forced : No

Audio
ID : 2
Format : E-AC-3
Format/Info : Enhanced AC-3
Commercial name : Dolby Digital Plus
Codec ID : A_EAC3
Duration : 2 h 5 min
Bit rate mode : Constant
Bit rate : 640 kb/s
Channel(s) : 6 channels
Channel layout : L R C LFE Ls Rs
Sampling rate : 48.0 kHz
Frame rate : 31.250 FPS (1536 SPF)
Compression mode : Lossy
Stream size : 575 MiB (9%)
Title : Dolby Digital Plus / 5.1 / 48 kHz / 640 kbps
Language : English
Service kind : Complete Main
Default : Yes
Forced : No

Text
ID : 3
Format : PGS
Muxing mode : zlib
Codec ID : S_HDMV/PGS
Codec ID/Info : Picture based subtitle format used on BDs/HD-DVDs
Duration : 2 h 4 min
Bit rate : 19.7 kb/s
Count of elements : 1458
Stream size : 17.6 MiB (0%)
Title : SHD
Language : English
Default : Yes
Forced : No

Menu
00:00:00.000 : en:Logos
00:00:49.508 : en:Deep Sea Hijacking
00:05:59.609 : en:Ski Chase
00:08:05.985 : en:Main Titles
00:12:37.048 : en:Bond's Mission
00:15:15.164 : en:Stromberg's Wrath
00:18:01.289 : en:Atlantis Rising
00:20:35.234 : en:Desert Trek
00:23:16.770 : en:Danger in Cairo
00:27:28.814 : en:Pyramid Murder
00:32:58.435 : en:The Mujamba Club
00:40:01.024 : en:On Jaw's Trail
00:46:12.436 : en:The Road to Cairo
00:48:31.742 : en:Body Heat
00:51:06.313 : en:Pyramid Headquarters
00:53:24.034 : en:Q's Labrotory
00:57:37.120 : en:Battle on the Train
01:01:14.713 : en:Arrival in Sardinia
01:06:03.626 : en:Meeting Stromberg
01:10:39.902 : en:Deadly Pursuit
01:17:02.451 : en:Underwater Attack
01:22:40.706 : en:Aboard the Uss Wayne
01:25:27.914 : en:The Liparus Strikes
01:31:05.960 : en:Stromberg's Plan
01:34:50.268 : en:Bond Escapes
01:36:16.187 : en:The Revolt
01:40:37.573 : en:The Detonator
01:48:56.155 : en:Liiparus Destroyed
01:54:11.845 : en:Anya's Rescue
01:57:53.525 : en:Man Bites Shark
01:59:45.553 : en:Escape From Atlantis
02:03:56.679 : en:End Titles