PXT24

PXT24

The Sword in the Stone 1963 1080p BluRay DD+ 5.1 x265-edge2020
  • Category
    : Movies
  • Type
    : HEVC/x265
  • Language
    : English
  • Total size
    : 3.00 GB
  • Date uploaded
    : 08 Jul ,2024

a8250fffeb7f54e894d2995e0a0eadd9
Quote: Source - The.Sword.in.the.Stone.1963.BluRay.Remux.1080p.AVC.DTS-HD.MA.5.1-HiFi


Ke4km.md
KeEDk.md
KeK59.md


General
Unique ID                                : 79434344089632138212603951069984562387 (0x3BC27F8958D1E2B3F47943391D359CD3)
Complete name                            : The.Sword.in.the.Stone.1963.1080p.BluRay.DDP.5.1.x265-EDGE2020.mkv
Format                                   : Matroska
Format version                           : Version 4
File size                                : 3.01 GiB
Duration                                 : 1 h 19 min
Overall bit rate                         : 5 403 kb/s
Encoded date                             : UTC 2024-04-01 20:16:29
Writing application                      : mkvmerge v83.0 ('Circle Of Friends') 64-bit
Writing library                          : libebml v1.4.5 + libmatroska v1.7.1

Video
ID                                       : 1
Format                                   : HEVC
Format/Info                              : High Efficiency Video Coding
Format profile                           : Main 10@L4@Main
Codec ID                                 : V_MPEGH/ISO/HEVC
Duration                                 : 1 h 19 min
Bit rate                                 : 4 750 kb/s
Width                                    : 1 888 pixels
Height                                   : 1 080 pixels
Display aspect ratio                     : 16:9
Frame rate mode                          : Constant
Frame rate                               : 23.976 (24000/1001) FPS
Color space                              : YUV
Chroma subsampling                       : 4:2:0
Bit depth                                : 10 bits
Bits/(Pixel*Frame)                       : 0.097
Stream size                              : 2.64 GiB (88%)
Writing library                          : x265 3.5+156+14-df2e4c31e:[Windows][MSVC 1937][64 bit] 10bit
Encoding settings                        : cpuid=1111039 / frame-threads=4 / numa-pools=24 / wpp / no-pmode / no-pme / no-psnr / no-ssim / log-level=2 / input-csp=1 / input-res=1888x1080 / interlace=0 / total-frames=114528 / level-idc=0 / high-tier=1 / uhd-bd=0 / ref=4 / no-allow-non-conformance / no-repeat-headers / annexb / no-aud / no-eob / no-eos / no-hrd / info / hash=0 / temporal-layers=0 / open-gop / min-keyint=23 / keyint=250 / gop-lookahead=0 / bframes=4 / b-adapt=2 / b-pyramid / bframe-bias=0 / rc-lookahead=25 / lookahead-slices=4 / scenecut=40 / no-hist-scenecut / radl=0 / no-splice / no-intra-refresh / ctu=64 / min-cu-size=8 / rect / no-amp / max-tu-size=32 / tu-inter-depth=1 / tu-intra-depth=1 / limit-tu=0 / rdoq-level=2 / dynamic-rd=0.00 / no-ssim-rd / signhide / no-tskip / nr-intra=0 / nr-inter=0 / no-constrained-intra / strong-intra-smoothing / max-merge=3 / limit-refs=3 / limit-modes / me=3 / subme=3 / merange=57 / temporal-mvp / no-frame-dup / no-hme / weightp / no-weightb / no-analyze-src-pics / deblock=0:0 / sao / no-sao-non-deblock / rd=4 / selective-sao=4 / no-early-skip / rskip / no-fast-intra / no-tskip-fast / no-cu-lossless / no-b-intra / no-splitrd-skip / rdpenalty=0 / psy-rd=2.00 / psy-rdoq=1.00 / no-rd-refine / no-lossless / cbqpoffs=0 / crqpoffs=0 / rc=crf / crf=21.0 / qcomp=0.60 / qpstep=4 / stats-write=0 / stats-read=0 / ipratio=1.40 / pbratio=1.30 / aq-mode=2 / aq-strength=1.00 / aq-bias-strength=1.00 / cutree / zone-count=0 / no-strict-cbr / qg-size=32 / no-rc-grain / qpmax=69 / qpmin=0 / no-const-vbv / sar=0 / overscan=0 / videoformat=5 / range=0 / colorprim=2 / transfer=2 / colormatrix=2 / chromaloc=0 / display-window=0 / cll=0,0 / min-luma=0 / max-luma=1023 / log2-max-poc-lsb=8 / vui-timing-info / vui-hrd-info / slices=1 / no-opt-qp-pps / no-opt-ref-list-length-pps / no-multi-pass-opt-rps / scenecut-bias=0.05 / no-opt-cu-delta-qp / no-aq-motion / no-hdr10 / no-hdr10-opt / no-dhdr10-opt / no-idr-recovery-sei / analysis-reuse-level=0 / analysis-save-reuse-level=0 / analysis-load-reuse-level=0 / scale-factor=0 / refine-intra=0 / refine-inter=0 / refine-mv=1 / refine-ctu-distortion=0 / no-limit-sao / ctu-info=0 / no-lowpass-dct / refine-analysis-type=0 / copy-pic=1 / max-ausize-factor=1.0 / no-dynamic-refine / no-single-sei / no-hevc-aq / no-svt / no-field / qp-adaptation-range=1.00 / scenecut-aware-qp=0 / conformance-window-offsets / right=0 / bottom=0 / decoder-max-rate=0 / no-vbv-live-multi-pass / no-mcstf / no-sbrc
Default                                  : Yes
Forced                                   : No

Audio
ID                                       : 2
Format                                   : E-AC-3
Format/Info                              : Enhanced AC-3
Commercial name                          : Dolby Digital Plus
Codec ID                                 : A_EAC3
Duration                                 : 1 h 19 min
Bit rate mode                            : Constant
Bit rate                                 : 640 kb/s
Channel(s)                               : 6 channels
Channel layout                           : L R C LFE Ls Rs
Sampling rate                            : 48.0 kHz
Frame rate                               : 31.250 FPS (1536 SPF)
Compression mode                         : Lossy
Stream size                              : 365 MiB (12%)
Title                                    : Dolby Digital Plus / 5.1 / 48 kHz / 640 kbps
Language                                 : English
Service kind                             : Complete Main
Default                                  : Yes
Forced                                   : No

Text
ID                                       : 3
Format                                   : PGS
Muxing mode                              : zlib
Codec ID                                 : S_HDMV/PGS
Codec ID/Info                            : Picture based subtitle format used on BDs/HD-DVDs
Duration                                 : 1 h 17 min
Bit rate                                 : 62.0 kb/s
Count of elements                        : 2612
Stream size                              : 34.5 MiB (1%)
Title                                    : SHD
Language                                 : English
Default                                  : Yes
Forced                                   : No

Menu
00:00:00.000                             : en:Opening Credits
00:01:39.891                             : en:The Legend of The Sword In The Stone
00:08:26.798                             : en:Wart Drops In for Tea
00:12:46.474                             : en:"Higitus Figitus"
00:16:59.393                             : en:At Sir Ector's Castle
00:22:07.785                             : en:Big News From London
00:25:02.209                             : en:A Magical Education
00:30:25.532                             : en:"That's What Makes The World Go Round"
00:39:07.720                             : en:A Medieval Assembly Line
00:43:00.703                             : en:"A Most Befuddling Thing"
00:49:12.116                             : en:Meanwhile, Back at the Castle
00:54:51.121                             : en:Archimedes Takes Over Wart's Education
00:56:45.694                             : en:Wart Tries His Wings
00:59:46.333                             : en:Madam Mim
01:04:05.592                             : en:The Duel of the Wizards
01:10:17.588                             : en:Wart Is Made a Squire
01:15:37.575                             : en:King Arthur