PXT24

PXT24

The Towering Inferno - L'inferno di cristallo (1974) 1080p h264 Ac3 Ita Eng Sub Ita Eng-MIRCrew
  • Category
    : Movies
  • Type
    : HD
  • Language
    : English
  • Total size
    : 3.60 GB
  • Date uploaded
    : 03 Apr ,2024

The Towering Inferno - L'inferno di cristallo - (1974) 1080p h264 Ac3 Ita Eng Sub Ita Eng-MIRCrew

banner-MIRCrew-aprile-22-trasp


NO FOUND ONLY ORIGINAL RELEASE

My release is always in double track audio italian and Original audio
for select it use VLC or dvd player home
not use wmp


L'inferno di cristallo - The Towering Inferno (1974)

PRESENTE SIA IL DOPPIAGGIO STORICO CHE QUELLO NUOVO


Quality MIRCrew in HD 1080p da 3,65 gb

MXkcLLb

youtube_logo imdb_new

fGu1rKv

1975 - Premio Oscar

Migliore fotografia a Fred J. Koenekamp e Joseph F. Biroc
Miglior montaggio a Harold F. Kress e Carl Kress
Miglior canzone (We May Never Love Like This Again) a Al Kasha e Joel Hirschhorn
Candidatura come miglior film a Irwin Allen
Candidatura come miglior attore non protagonista a Fred Astaire
Candidatura alla migliore scenografia a William J. Creber, Ward Preston e Raphael Bretton
Candidatura al miglior sonoro a Theodore Soderberg e Herman Lewis
Candidatura alla migliore colonna sonora a John Williams

1975 - Golden Globe

Miglior attore non protagonista a Fred Astaire
Migliore attrice debuttante a Susan Flannery
Candidatura come migliore attrice non protagonista a Jennifer Jones
Candidatura alla migliore sceneggiatura a Stirling Silliphant
Candidatura alla miglior canzone (We May Never Love Like This Again) a Al Kasha e Joel Hirschhorn

1975 - David di Donatello

Titolo originale The Towering Inferno
Paese di produzione Stati Uniti d'America
Anno 1974
Durata 165 min
Genere catastrofico
Regia John Guillermin
Soggetto Frank M. Robinson,
Thomas N. Scortia (romanzo L'inferno di cristallo),
Richard M. Stern (romanzo La torre)
Sceneggiatura Stirling Silliphant
Fotografia Fred J. Koenekamp, Joseph Biroc
Montaggio Carl Kress, Harold F. Kress
Effetti speciali A.D. Flowers, Logan Frazee, L.B. Abbott
Musiche John Williams
Scenografia William J. Creber, Ward Preston, Raphael Bretton
Costumi Paul Zastupnevich
Trucco Monty Westmore, Emile La Vigne

W7kBqiE

Steve McQueen: Mike O'Halloran
Paul Newman: Doug Roberts
William Holden: James Duncan
Faye Dunaway: Susan Franklin
Fred Astaire: Harlee Claiborne
Susan Blakely: Patty Duncan Simmons
Richard Chamberlain: Roger Simmons
Jennifer Jones: Lisolette Mueller
O. J. Simpson: Harry Jernigan
Robert Vaughn: Gary Parker
Robert Wagner: Dan Bigelow
Susan Flannery: Lorrie
Sheila Allen: Paula Ramsay
Norman Burton: Will Giddings
Jack Collins: Robert Ramsay
Don Gordon: Kappy
Felton Perry: Scott
Gregory Sierra: Carlos
Ernie F. Orsatti: Mark Powers
Dabney Coleman: vicecapo pompieri
John Crawford: Callahan

Doppiatori italiani

Sergio Rossi: Mike O'Halloran
Giuseppe Rinaldi: Doug Roberts
Giorgio Piazza: James Duncan
Vittoria Febbi: Susan Franklin
Giulio Panicali: Harlee Claiborne
Simona Izzo: Patty Duncan Simmons
Sandro Iovino: Roger Simmons
Anna Miserocchi: Lisolette Mueller
Glauco Onorato: Harry Jernigan
Pino Colizzi: Dan Bigelow
Lydia Simoneschi: Paula Ramsay
Renato Mori: Will Giddings
Sergio Fiorentini: Robert Ramsay

Ridoppiaggio (2003)

Gino La Monica: Mike O'Halloran
Massimo Corvo: Doug Roberts
Vittorio Di Prima: James Duncan
Emanuela Rossi: Susan Franklin
Antonio Guidi: Harlee Claiborne
Francesca Fiorentini: Patty Duncan Simmons
Christian Iansante: Roger Simmons
Sonia Scotti: Lisolette Mueller
Stefano Mondini: Harry Jernigan
Mauro Gravina: Dan Bigelow
Alessandra Korompay: Lorrie
Angiolina Quinterno: Paula Ramsay
Pasquale Anselmo: Kappy



bFK3ggF

A San Francisco è in programma l'inaugurazione dell'edificio più alto del mondo (138 piani e 550 metri d'altezza): il grattacielo è stato realizzato dall'imprenditore James Duncan su progetto dell'architetto Doug Roberts.

Alla cerimonia di inaugurazione presenziano circa 300 vip, tra cui il sindaco Ramsay e il senatore Parker; già prima dell'inizio della cerimonia Roberts si accorge che l'impianto elettrico non risponde ad adeguati standard di sicurezza e allora................................

48xHWWH

Doug Roberts, architect, returns from a long vacation to find work nearly completed on his skyscraper. He goes to the party that night concerned he's found that his wiring specifications have not been followed and that the building continues to develop short circuits. When the fire begins, Michael O'Halloran is the chief on duty as a series of daring rescues punctuate the terror of a building too tall to have a fire successfully fought from the ground.

vlcsnap-2024-04-03-14h37m17s875

vlcsnap-2024-04-03-14h37m32s890

vlcsnap-2024-04-03-14h38m04s594

vlcsnap-2024-04-03-14h38m30s676

vlcsnap-2024-04-03-14h38m35s255

vlcsnap-2024-04-03-14h38m40s286



aVrMohH

[spoiler]

General

Complete name : L'inferno di cristallo - The Towering Inferno (1974) 1080p h264 Ac3 Ita Storico Ita Eng Sub Ita Eng-MIRCrew.mkv
Format : Matroska
Format version : Version 2
File size : 3.65 GiB
Duration : 2h 44mn
Overall bit rate : 3 167 Kbps
Movie name : MIRCrew
Encoded date : UTC 2024-03-30T10:40:18Z
Writing application : mkvmerge v5.8.0 ('No Sleep / Pillow') built on Sep 2 2012 15:37:04
Writing library : Lavf55.12.0

Video
ID : 1
Format : AVC
Format/Info : Advanced Video Codec
Format profile : [email protected]
Format settings, CABAC : Yes
Format settings, ReFrames : 4 frames
Codec ID : V_MPEG4/ISO/AVC
Duration : 2h 44mn
Bit rate : 2 600 Kbps
Width : 1 904 pixels
Height : 816 pixels
Display aspect ratio : 2.35:1
Frame rate : 23.976 fps
Color space : YUV
Chroma subsampling : 4:2:0
Bit depth : 8 bits
Scan type : Progressive
Bits/(Pixel*Frame) : 0.070
Stream size : 2.91 GiB (80%)
Title : MIRCrew
Writing library : x264 core 142 r2479 dd79a61
Encoding settings : cabac=1 / ref=1 / deblock=1:0:0
Language : Italian
Default : Yes
Forced : No
Color primaries : BT.709-5, BT.1361, IEC 61966-2-4, SMPTE RP177
Transfer characteristics : BT.709-5, BT.1361
Matrix coefficients : BT.709-5, BT.1361, IEC 61966-2-4 709, SMPTE RP177

Audio #1
ID : 2
Format : AC-3
Format/Info : Audio Coding 3
Mode extension : CM (complete main)
Codec ID : A_AC3
Duration : 2h 44mn
Bit rate mode : Constant
Bit rate : 192 Kbps
Channel(s) : 2 channels
Channel positions : Front: L R
Sampling rate : 48.0 KHz
Bit depth : 16 bits
Compression mode : Lossy
Delay relative to video : -5ms
Stream size : 226 MiB (6%)
Title : Ita Ac3 2.0 Doppiaggio storico
Language : Italian
Default : No
Forced : No

Audio #2
ID : 3
Format : AC-3
Format/Info : Audio Coding 3
Mode extension : CM (complete main)
Codec ID : A_AC3
Duration : 2h 44mn
Bit rate mode : Constant
Bit rate : 192 Kbps
Channel(s) : 2 channels
Channel positions : Front: L R
Sampling rate : 48.0 KHz
Bit depth : 16 bits
Compression mode : Lossy
Delay relative to video : -5ms
Stream size : 226 MiB (6%)
Title : Ita Ac3 2.0 Nuovo doppiaggio
Language : Italian
Default : No
Forced : No

Audio #3
ID : 4
Format : AC-3
Format/Info : Audio Coding 3
Mode extension : CM (complete main)
Codec ID : A_AC3
Duration : 2h 44mn
Bit rate mode : Constant
Bit rate : 192 Kbps
Channel(s) : 2 channels
Channel positions : Front: L R
Sampling rate : 48.0 KHz
Bit depth : 16 bits
Compression mode : Lossy
Delay relative to video : -5ms
Stream size : 226 MiB (6%)
Title : Eng Ac3 2.0
Language : English
Default : No
Forced : No

Text #1
ID : 5
Format : ASS
Codec ID : S_TEXT/ASS
Codec ID/Info : Advanced Sub Station Alpha
Compression mode : Lossless
Title : Forced ita
Language : Italian
Default : Yes
Forced : Yes

Text #2
ID : 6
Format : ASS
Codec ID : S_TEXT/ASS
Codec ID/Info : Advanced Sub Station Alpha
Compression mode : Lossless
Title : Ita
Language : Italian
Default : No
Forced : No

Text #3
ID : 7
Format : ASS
Codec ID : S_TEXT/ASS
Codec ID/Info : Advanced Sub Station Alpha
Compression mode : Lossless
Title : Eng
Language : English
Default : No
Forced : No

Menu
00:00:00.000 : :01 Titoli di testa
00:03:35.089 : :02 L'architetto
00:09:04.001 : :03 Da lontano e da vicino
00:11:28.896 : :04 Dove c'è fumo...
00:13:48.994 : :05 Volere capra e cavoli
00:18:44.915 : :06 Come da specifiche
00:22:54.873 : :07 Un trattamento di riguardo
00:28:44.014 : :08 Attaccamento al lavoro
00:31:52.952 : :09 Tempo di festa
00:35:44.726 : :10 Sovraccarico
00:41:39.955 : :11 La centrale di comando
00:46:45.135 : :12 Ordine di evacuazione
00:52:07.541 : :13 Cambio di programma
00:55:31.369 : :14 Fuori controllo
00:58:05.815 : :15 In trappola
01:06:32.321 : :16 Buon vicinato
01:10:12.833 : :17 Sempre più su
01:14:07.776 : :18 Afferratevi bene!
01:23:33.466 : :19 Supporto navale
01:28:16.040 : :20 Gia¹ nel condotto
01:34:08.392 : :21 Scalinata per l'inferno
01:43:06.513 : :22 Rimpianti
01:46:31.385 : :23 Il cuore del gruppo
01:49:05.831 : :24 Donne e bambini
01:57:57.487 : :25 Ancora di salvezza
02:00:46.948 : :26 Appesi a un cavo
02:07:09.538 : :27 Già, a terra
02:14:34.274 : :28 Nessuna alternativa
02:21:48.083 : :29 Ultima occasione
02:30:38.446 : :30 Quattro milioni di litri
02:36:50.150 : :31 Pianificando il futuro
02:41:24.883 : :32 Titoli di coda



[/spoiler]

lvhU6

cWb6Z

nU43TBc