PXT24

PXT24

The.Wages.of.Fear.2024.720p.NF.WEB-DL.MULTi.DD+5.1.Atmos.H.264-TheBiscuitMan
  • Category
    : Movies
  • Type
    : HD
  • Language
    : Hindi
  • Total size
    : 3.00 GB
  • Date uploaded
    : 02 Apr ,2024

a ============================================================== Png-Item-2144731 ==============================================================
The.Wages.of.Fear.2024.720p.NF.WEB-DL.MULTi.DD+5.1.Atmos.H.264-TheBiscuitMan
==============================================================
IMDB | TMDB | MOVIE TEASER
==============================================================
Video: AVC | 1280x720 24fps | 731 kb/s
Audio #1: French | E-AC-3 JOC | Enhanced AC-3 with Joint Object Coding | 768 kb/s | DD+5.1 Atmos | 6 channels
Audio #2: English | E-AC-3 | Enhanced AC-3 | 640 kb/s | DD+5.1 | 6 channels
Audio #3: Hindi | E-AC-3 | Enhanced AC-3 | 640 kb/s | DD+5.1 | 6 channels
Audio #4: Tamil | E-AC-3 | Enhanced AC-3 | 640 kb/s | DD+5.1 | 6 channels
Audio #5: Telugu | E-AC-3 | Enhanced AC-3 | 640 kb/s | DD+5.1 | 6 channels
Subtitle: Arabic | Basque | Catalan | Croatian | Czech [Forced] | Danish | Dutch | English | English (Dub) | English (Forced) | Dub [Forced] | English (Dub) [SDH] | Finnish | Finnish [Israel] | Israel [Forced] | Filipino | French | French [SDH] | French [Forced] | Galician | German [Forced] | German | Greek | Hebrew | Hindi [Forced] | Hungarian | Hungarian [Forced] | Indonesian | Indonesian [Forced] | Italian | Italian [Forced] | Japanese | Japanese [Forced] | Polish [Forced] | Brazilian | Portuguese (BR) [Forced] | Spanish [Forced] | Tamil [Forced] | Telugu [Forced] | Thai [Forced] | Turkish [Forced] | Ukrainian [Forced] | Chinese (Simplified) [Simplified] | Chinese (Traditional) [Traditional]
Size: 3.02 GiB | Duration: 1h 46min
==============================================================
Posted by: xCLuMsYx | Date: 01/04/2024
==============================================================
Ticker-DOT
1
More Poster's

Code: General
Unique ID : 99249249631380791813577590684955377499 (0x4AAAB5CE81E9EB6690BFEA357F4AFF5B)
Complete name : The.Wages.of.Fear.2024.720p.NF.WEB-DL.MULTi.DD+5.1.Atmos.H.264-TheBiscuitMan.mkv
Format : Matroska
Format version : Version 4
File size : 3.02 GiB
Duration : 1 h 46 min
Overall bit rate mode : Variable
Overall bit rate : 4 064 kb/s
Frame rate : 24.000 FPS
Writing application : mkvmerge v83.0 ('Circle Of Friends') 64-bit
Writing library : libebml v1.4.5 + libmatroska v1.7.1

Video
ID : 1
Format : AVC
Format/Info : Advanced Video Codec
Format profile : [email protected]
Format settings : CABAC / 4 Ref Frames
Format settings, CABAC : Yes
Format settings, Reference frames : 4 frames
Codec ID : V_MPEG4/ISO/AVC
Duration : 1 h 46 min
Bit rate mode : Variable
Bit rate : 731 kb/s
Maximum bit rate : 14.0 Mb/s
Width : 1 280 pixels
Height : 720 pixels
Display aspect ratio : 16:9
Frame rate mode : Constant
Frame rate : 24.000 FPS
Color space : YUV
Chroma subsampling : 4:2:0
Bit depth : 8 bits
Scan type : Progressive
Bits/(Pixel*Frame) : 0.033
Stream size : 555 MiB (18%)
Writing library : x264 core 148 r2727 7d026e8
Encoding settings : cabac=1 / ref=4 / deblock=1:0:0 / analyse=0x3:0x111 / me=umh / subme=10 / psy=1 / psy_rd=1.00:0.00 / mixed_ref=1 / me_range=120 / chroma_me=1 / trellis=2 / 8x8dct=1 / cqm=0 / deadzone=21,11 / fast_pskip=1 / chroma_qp_offset=-2 / threads=6 / lookahead_threads=1 / sliced_threads=0 / nr=0 / decimate=1 / interlaced=0 / bluray_compat=0 / stitchable=1 / constrained_intra=0 / bframes=16 / b_pyramid=2 / b_adapt=2 / b_bias=0 / direct=3 / weightb=1 / open_gop=0 / weightp=2 / keyint=240 / keyint_min=121 / scenecut=0 / intra_refresh=0 / rc_lookahead=240 / rc=crf / mbtree=1 / crf=20.0 / qcomp=0.50 / qpmin=6 / qpmax=51 / qpstep=4 / vbv_maxrate=14000 / vbv_bufsize=14000 / crf_max=0.0 / nal_hrd=vbr / filler=0 / ip_ratio=1.40 / aq=1:0.80
Default : Yes
Forced : No

Audio #1
ID : 2
Format : E-AC-3 JOC
Format/Info : Enhanced AC-3 with Joint Object Coding
Commercial name : Dolby Digital Plus with Dolby Atmos
Codec ID : A_EAC3
Duration : 1 h 46 min
Bit rate mode : Constant
Bit rate : 768 kb/s
Channel(s) : 6 channels
Channel layout : L R C LFE Ls Rs
Sampling rate : 48.0 kHz
Frame rate : 31.250 FPS (1536 SPF)
Compression mode : Lossy
Stream size : 584 MiB (19%)
Language : French
Service kind : Complete Main
Default : Yes
Forced : No
Complexity index : 16
Number of dynamic objects : 15
Bed channel count : 1 channel
Bed channel configuration : LFE

Audio #2
ID : 3
Format : E-AC-3
Format/Info : Enhanced AC-3
Commercial name : Dolby Digital Plus
Codec ID : A_EAC3
Duration : 1 h 46 min
Bit rate mode : Constant
Bit rate : 640 kb/s
Channel(s) : 6 channels
Channel layout : L R C LFE Ls Rs
Sampling rate : 48.0 kHz
Frame rate : 31.250 FPS (1536 SPF)
Compression mode : Lossy
Stream size : 486 MiB (16%)
Language : English
Service kind : Complete Main
Default : No
Forced : No

Audio #3
ID : 4
Format : E-AC-3
Format/Info : Enhanced AC-3
Commercial name : Dolby Digital Plus
Codec ID : A_EAC3
Duration : 1 h 46 min
Bit rate mode : Constant
Bit rate : 640 kb/s
Channel(s) : 6 channels
Channel layout : L R C LFE Ls Rs
Sampling rate : 48.0 kHz
Frame rate : 31.250 FPS (1536 SPF)
Compression mode : Lossy
Stream size : 486 MiB (16%)
Language : Hindi
Service kind : Complete Main
Default : No
Forced : No

Audio #4
ID : 5
Format : E-AC-3
Format/Info : Enhanced AC-3
Commercial name : Dolby Digital Plus
Codec ID : A_EAC3
Duration : 1 h 46 min
Bit rate mode : Constant
Bit rate : 640 kb/s
Channel(s) : 6 channels
Channel layout : L R C LFE Ls Rs
Sampling rate : 48.0 kHz
Frame rate : 31.250 FPS (1536 SPF)
Compression mode : Lossy
Stream size : 486 MiB (16%)
Language : Tamil
Service kind : Complete Main
Default : No
Forced : No

Audio #5
ID : 6
Format : E-AC-3
Format/Info : Enhanced AC-3
Commercial name : Dolby Digital Plus
Codec ID : A_EAC3
Duration : 1 h 46 min
Bit rate mode : Constant
Bit rate : 640 kb/s
Channel(s) : 6 channels
Channel layout : L R C LFE Ls Rs
Sampling rate : 48.0 kHz
Frame rate : 31.250 FPS (1536 SPF)
Compression mode : Lossy
Stream size : 486 MiB (16%)
Language : Telugu
Service kind : Complete Main
Default : No
Forced : No

Text #1
ID : 7
Format : UTF-8
Codec ID : S_TEXT/UTF8
Codec ID/Info : UTF-8 Plain Text
Duration : 1 h 38 min
Bit rate : 48 b/s
Frame rate : 0.114 FPS
Count of elements : 670
Stream size : 34.8 KiB (0%)
Language : Arabic
Default : No
Forced : No

Text #2
ID : 8
Format : UTF-8
Codec ID : S_TEXT/UTF8
Codec ID/Info : UTF-8 Plain Text
Duration : 1 h 42 min
Bit rate : 21 b/s
Frame rate : 0.099 FPS
Count of elements : 611
Stream size : 16.2 KiB (0%)
Language : Basque
Default : No
Forced : No

Text #3
ID : 9
Format : UTF-8
Codec ID : S_TEXT/UTF8
Codec ID/Info : UTF-8 Plain Text
Duration : 1 h 42 min
Bit rate : 20 b/s
Frame rate : 0.094 FPS
Count of elements : 579
Stream size : 15.7 KiB (0%)
Language : Catalan
Default : No
Forced : No

Text #4
ID : 10
Format : UTF-8
Codec ID : S_TEXT/UTF8
Codec ID/Info : UTF-8 Plain Text
Duration : 1 h 42 min
Bit rate : 19 b/s
Frame rate : 0.095 FPS
Count of elements : 584
Stream size : 14.4 KiB (0%)
Language : Croatian
Default : No
Forced : No

Text #5
ID : 11
Format : UTF-8
Codec ID : S_TEXT/UTF8
Codec ID/Info : UTF-8 Plain Text
Duration : 1 h 34 min
Bit rate : 23 b/s
Frame rate : 0.102 FPS
Count of elements : 578
Stream size : 16.5 KiB (0%)
Language : Czech
Default : No
Forced : No

Text #6
ID : 12
Format : UTF-8
Codec ID : S_TEXT/UTF8
Codec ID/Info : UTF-8 Plain Text
Duration : 1 h 23 min
Bit rate : 0 b/s
Frame rate : 0.003 FPS
Count of elements : 14
Stream size : 303 Bytes (0%)
Title : [Forced]
Language : Czech
Default : No
Forced : Yes

Text #7
ID : 13
Format : UTF-8
Codec ID : S_TEXT/UTF8
Codec ID/Info : UTF-8 Plain Text
Duration : 1 h 38 min
Bit rate : 21 b/s
Frame rate : 0.096 FPS
Count of elements : 565
Stream size : 15.1 KiB (0%)
Language : Danish
Default : No
Forced : No

Text #8
ID : 14
Format : UTF-8
Codec ID : S_TEXT/UTF8
Codec ID/Info : UTF-8 Plain Text
Duration : 1 h 43 min
Bit rate : 22 b/s
Frame rate : 0.085 FPS
Count of elements : 525
Stream size : 16.6 KiB (0%)
Language : Dutch
Default : No
Forced : No

Text #9
ID : 15
Format : UTF-8
Codec ID : S_TEXT/UTF8
Codec ID/Info : UTF-8 Plain Text
Duration : 1 h 36 min
Bit rate : 27 b/s
Frame rate : 0.108 FPS
Count of elements : 630
Stream size : 19.3 KiB (0%)
Language : English
Default : No
Forced : No

Text #10
ID : 16
Format : UTF-8
Codec ID : S_TEXT/UTF8
Codec ID/Info : UTF-8 Plain Text
Duration : 1 h 36 min
Bit rate : 23 b/s
Frame rate : 0.107 FPS
Count of elements : 624
Stream size : 16.4 KiB (0%)
Language : English
Default : No
Forced : No

Text #11
ID : 17
Format : UTF-8
Codec ID : S_TEXT/UTF8
Codec ID/Info : UTF-8 Plain Text
Duration : 1 h 33 min
Bit rate : 0 b/s
Frame rate : 0.001 FPS
Count of elements : 4
Stream size : 54.0 Bytes (0%)
Title : [Forced]
Language : English
Default : No
Forced : Yes

Text #12
ID : 18
Format : UTF-8
Codec ID : S_TEXT/UTF8
Codec ID/Info : UTF-8 Plain Text
Duration : 1 h 33 min
Bit rate : 0 b/s
Frame rate : 0.001 FPS
Count of elements : 4
Stream size : 54.0 Bytes (0%)
Title : Dub [Forced]
Language : English
Default : No
Forced : Yes

Text #13
ID : 19
Format : UTF-8
Codec ID : S_TEXT/UTF8
Codec ID/Info : UTF-8 Plain Text
Duration : 1 h 36 min
Bit rate : 27 b/s
Frame rate : 0.108 FPS
Count of elements : 630
Stream size : 19.4 KiB (0%)
Title : [Dub]
Language : English
Default : No
Forced : No

Text #14
ID : 20
Format : UTF-8
Codec ID : S_TEXT/UTF8
Codec ID/Info : UTF-8 Plain Text
Duration : 1 h 43 min
Bit rate : 34 b/s
Frame rate : 0.149 FPS
Count of elements : 924
Stream size : 26.1 KiB (0%)
Title : Dub [SDH]
Language : English
Default : Yes
Forced : No

Text #15
ID : 21
Format : UTF-8
Codec ID : S_TEXT/UTF8
Codec ID/Info : UTF-8 Plain Text
Duration : 1 h 38 min
Bit rate : 23 b/s
Frame rate : 0.093 FPS
Count of elements : 549
Stream size : 16.7 KiB (0%)
Language : Finnish
Default : No
Forced : No

Text #16
ID : 22
Format : UTF-8
Codec ID : S_TEXT/UTF8
Codec ID/Info : UTF-8 Plain Text
Duration : 1 h 38 min
Bit rate : 23 b/s
Frame rate : 0.100 FPS
Count of elements : 587
Stream size : 17.0 KiB (0%)
Title : [Israel]
Language : Finnish
Default : No
Forced : No

Text #17
ID : 23
Format : UTF-8
Codec ID : S_TEXT/UTF8
Codec ID/Info : UTF-8 Plain Text
Duration : 32 min 8 s
Bit rate : 0 b/s
Frame rate : 0.002 FPS
Count of elements : 3
Stream size : 43.0 Bytes (0%)
Title : Israel [Forced]
Language : Finnish
Default : No
Forced : Yes

Text #18
ID : 24
Format : UTF-8
Codec ID : S_TEXT/UTF8
Codec ID/Info : UTF-8 Plain Text
Duration : 1 h 38 min
Bit rate : 23 b/s
Frame rate : 0.100 FPS
Count of elements : 587
Stream size : 17.0 KiB (0%)
Language : Filipino
Default : No
Forced : No

Text #19
ID : 25
Format : UTF-8
Codec ID : S_TEXT/UTF8
Codec ID/Info : UTF-8 Plain Text
Duration : 1 h 34 min
Bit rate : 27 b/s
Frame rate : 0.112 FPS
Count of elements : 631
Stream size : 18.9 KiB (0%)
Language : French
Default : No
Forced : No

Text #20
ID : 26
Format : UTF-8
Codec ID : S_TEXT/UTF8
Codec ID/Info : UTF-8 Plain Text
Duration : 1 h 41 min
Bit rate : 43 b/s
Frame rate : 0.208 FPS
Count of elements : 1262
Stream size : 32.0 KiB (0%)
Title : [SDH]
Language : French
Default : No
Forced : No

Text #21
ID : 27
Format : UTF-8
Codec ID : S_TEXT/UTF8
Codec ID/Info : UTF-8 Plain Text
Duration : 1 h 24 min
Bit rate : 2 b/s
Frame rate : 0.012 FPS
Count of elements : 61
Stream size : 1.57 KiB (0%)
Title : [Forced]
Language : French
Default : No
Forced : Yes

Text #22
ID : 28
Format : UTF-8
Codec ID : S_TEXT/UTF8
Codec ID/Info : UTF-8 Plain Text
Duration : 1 h 42 min
Bit rate : 21 b/s
Frame rate : 0.093 FPS
Count of elements : 572
Stream size : 16.0 KiB (0%)
Language : Galician
Default : No
Forced : No

Text #23
ID : 29
Format : UTF-8
Codec ID : S_TEXT/UTF8
Codec ID/Info : UTF-8 Plain Text
Duration : 1 h 36 min
Bit rate : 23 b/s
Frame rate : 0.099 FPS
Count of elements : 576
Stream size : 16.6 KiB (0%)
Language : German
Default : No
Forced : No

Text #24
ID : 30
Format : UTF-8
Codec ID : S_TEXT/UTF8
Codec ID/Info : UTF-8 Plain Text
Duration : 1 h 24 min
Bit rate : 2 b/s
Frame rate : 0.013 FPS
Count of elements : 66
Stream size : 1.50 KiB (0%)
Title : [Forced]
Language : German
Default : No
Forced : Yes

Text #25
ID : 31
Format : UTF-8
Codec ID : S_TEXT/UTF8
Codec ID/Info : UTF-8 Plain Text
Duration : 1 h 43 min
Bit rate : 36 b/s
Frame rate : 0.092 FPS
Count of elements : 572
Stream size : 28.0 KiB (0%)
Language : Greek
Default : No
Forced : No

Text #26
ID : 32
Format : UTF-8
Codec ID : S_TEXT/UTF8
Codec ID/Info : UTF-8 Plain Text
Duration : 1 h 38 min
Bit rate : 40 b/s
Frame rate : 0.103 FPS
Count of elements : 609
Stream size : 29.4 KiB (0%)
Language : Hebrew
Default : No
Forced : No

Text #27
ID : 33
Format : UTF-8
Codec ID : S_TEXT/UTF8
Codec ID/Info : UTF-8 Plain Text
Duration : 1 h 23 min
Bit rate : 0 b/s
Frame rate : 0.003 FPS
Count of elements : 14
Stream size : 272 Bytes (0%)
Title : [Forced]
Language : Hindi
Default : No
Forced : Yes

Text #28
ID : 34
Format : UTF-8
Codec ID : S_TEXT/UTF8
Codec ID/Info : UTF-8 Plain Text
Duration : 1 h 38 min
Bit rate : 22 b/s
Frame rate : 0.101 FPS
Count of elements : 594
Stream size : 16.1 KiB (0%)
Language : Hungarian
Default : No
Forced : No

Text #29
ID : 35
Format : UTF-8
Codec ID : S_TEXT/UTF8
Codec ID/Info : UTF-8 Plain Text
Duration : 1 h 35 min
Bit rate : 0 b/s
Frame rate : 0.005 FPS
Count of elements : 27
Stream size : 703 Bytes (0%)
Title : [Forced]
Language : Hungarian
Default : No
Forced : Yes

Text #30
ID : 36
Format : UTF-8
Codec ID : S_TEXT/UTF8
Codec ID/Info : UTF-8 Plain Text
Duration : 1 h 38 min
Bit rate : 21 b/s
Frame rate : 0.104 FPS
Count of elements : 610
Stream size : 15.3 KiB (0%)
Language : Indonesian
Default : No
Forced : No

Text #31
ID : 37
Format : UTF-8
Codec ID : S_TEXT/UTF8
Codec ID/Info : UTF-8 Plain Text
Duration : 40 min 32 s
Bit rate : 0 b/s
Frame rate : 0.004 FPS
Count of elements : 9
Stream size : 206 Bytes (0%)
Title : [Forced]
Language : Indonesian
Default : No
Forced : Yes

Text #32
ID : 38
Format : UTF-8
Codec ID : S_TEXT/UTF8
Codec ID/Info : UTF-8 Plain Text
Duration : 1 h 42 min
Bit rate : 20 b/s
Frame rate : 0.094 FPS
Count of elements : 580
Stream size : 15.5 KiB (0%)
Language : Italian
Default : No
Forced : No

Text #33
ID : 39
Format : UTF-8
Codec ID : S_TEXT/UTF8
Codec ID/Info : UTF-8 Plain Text
Duration : 9 min 3 s
Bit rate : 0 b/s
Frame rate : 0.004 FPS
Count of elements : 2
Stream size : 24.0 Bytes (0%)
Title : [Forced]
Language : Italian
Default : No
Forced : Yes

Text #34
ID : 40
Format : UTF-8
Codec ID : S_TEXT/UTF8
Codec ID/Info : UTF-8 Plain Text
Duration : 1 h 42 min
Bit rate : 18 b/s
Frame rate : 0.099 FPS
Count of elements : 612
Stream size : 13.7 KiB (0%)
Language : Japanese
Default : No
Forced : No

Text #35
ID : 41
Format : UTF-8
Codec ID : S_TEXT/UTF8
Codec ID/Info : UTF-8 Plain Text
Duration : 1 h 23 min
Bit rate : 0 b/s
Frame rate : 0.004 FPS
Count of elements : 18
Stream size : 326 Bytes (0%)
Title : [Forced]
Language : Japanese
Default : No
Forced : Yes

Text #36
ID : 42
Format : UTF-8
Codec ID : S_TEXT/UTF8
Codec ID/Info : UTF-8 Plain Text
Duration : 1 h 42 min
Bit rate : 27 b/s
Frame rate : 0.103 FPS
Count of elements : 634
Stream size : 21.1 KiB (0%)
Language : Korean
Default : No
Forced : No

Text #37
ID : 43
Format : UTF-8
Codec ID : S_TEXT/UTF8
Codec ID/Info : UTF-8 Plain Text
Duration : 1 h 42 min
Bit rate : 21 b/s
Frame rate : 0.089 FPS
Count of elements : 552
Stream size : 16.3 KiB (0%)
Language : Malay
Default : No
Forced : No

Text #38
ID : 44
Format : UTF-8
Codec ID : S_TEXT/UTF8
Codec ID/Info : UTF-8 Plain Text
Duration : 1 h 38 min
Bit rate : 21 b/s
Frame rate : 0.082 FPS
Count of elements : 482
Stream size : 15.6 KiB (0%)
Language : Norwegian Bokmal
Default : No
Forced : No

Text #39
ID : 45
Format : UTF-8
Codec ID : S_TEXT/UTF8
Codec ID/Info : UTF-8 Plain Text
Duration : 1 h 38 min
Bit rate : 20 b/s
Frame rate : 0.094 FPS
Count of elements : 555
Stream size : 14.4 KiB (0%)
Language : Polish
Default : No
Forced : No

Text #40
ID : 46
Format : UTF-8
Codec ID : S_TEXT/UTF8
Codec ID/Info : UTF-8 Plain Text
Duration : 40 min 32 s
Bit rate : 0 b/s
Frame rate : 0.002 FPS
Count of elements : 5
Stream size : 58.0 Bytes (0%)
Title : [Forced]
Language : Polish
Default : No
Forced : Yes

Text #41
ID : 47
Format : UTF-8
Codec ID : S_TEXT/UTF8
Codec ID/Info : UTF-8 Plain Text
Duration : 1 h 38 min
Bit rate : 21 b/s
Frame rate : 0.098 FPS
Count of elements : 575
Stream size : 15.5 KiB (0%)
Language : Portuguese (PT)
Default : No
Forced : No

Text #42
ID : 48
Format : UTF-8
Codec ID : S_TEXT/UTF8
Codec ID/Info : UTF-8 Plain Text
Duration : 1 h 36 min
Bit rate : 30 b/s
Frame rate : 0.119 FPS
Count of elements : 692
Stream size : 21.6 KiB (0%)
Title : [Brazilian]
Language : Portuguese (BR)
Default : No
Forced : No

Text #43
ID : 49
Format : UTF-8
Codec ID : S_TEXT/UTF8
Codec ID/Info : UTF-8 Plain Text
Duration : 1 h 33 min
Bit rate : 0 b/s
Frame rate : 0.002 FPS
Count of elements : 12
Stream size : 241 Bytes (0%)
Title : Brazilian [Forced]
Language : Portuguese (BR)
Default : No
Forced : Yes

Text #44
ID : 50
Format : UTF-8
Codec ID : S_TEXT/UTF8
Codec ID/Info : UTF-8 Plain Text
Duration : 1 h 42 min
Bit rate : 21 b/s
Frame rate : 0.090 FPS
Count of elements : 554
Stream size : 16.3 KiB (0%)
Language : Romanian
Default : No
Forced : No

Text #45
ID : 51
Format : UTF-8
Codec ID : S_TEXT/UTF8
Codec ID/Info : UTF-8 Plain Text
Duration : 1 h 38 min
Bit rate : 36 b/s
Frame rate : 0.102 FPS
Count of elements : 598
Stream size : 26.3 KiB (0%)
Language : Russian
Default : No
Forced : No

Text #46
ID : 52
Format : UTF-8
Codec ID : S_TEXT/UTF8
Codec ID/Info : UTF-8 Plain Text
Duration : 1 h 43 min
Bit rate : 21 b/s
Frame rate : 0.087 FPS
Count of elements : 537
Stream size : 16.1 KiB (0%)
Language : Swedish
Default : No
Forced : No

Text #47
ID : 53
Format : UTF-8
Codec ID : S_TEXT/UTF8
Codec ID/Info : UTF-8 Plain Text
Duration : 1 h 36 min
Bit rate : 25 b/s
Frame rate : 0.102 FPS
Count of elements : 591
Stream size : 18.3 KiB (0%)
Language : Spanish
Default : No
Forced : No

Text #48
ID : 54
Format : UTF-8
Codec ID : S_TEXT/UTF8
Codec ID/Info : UTF-8 Plain Text
Duration : 1 h 33 min
Bit rate : 0 b/s
Frame rate : 0.002 FPS
Count of elements : 11
Stream size : 217 Bytes (0%)
Title : [Forced]
Language : Spanish
Default : No
Forced : Yes

Text #49
ID : 55
Format : UTF-8
Codec ID : S_TEXT/UTF8
Codec ID/Info : UTF-8 Plain Text
Duration : 1 h 42 min
Bit rate : 21 b/s
Frame rate : 0.098 FPS
Count of elements : 604
Stream size : 15.9 KiB (0%)
Language : Spanish
Default : No
Forced : No

Text #50
ID : 56
Format : UTF-8
Codec ID : S_TEXT/UTF8
Codec ID/Info : UTF-8 Plain Text
Duration : 9 min 3 s
Bit rate : 0 b/s
Frame rate : 0.004 FPS
Count of elements : 2
Stream size : 33.0 Bytes (0%)
Title : [Forced]
Language : Spanish
Default : No
Forced : Yes

Text #51
ID : 57
Format : UTF-8
Codec ID : S_TEXT/UTF8
Codec ID/Info : UTF-8 Plain Text
Duration : 1 h 36 min
Bit rate : 1 b/s
Frame rate : 0.005 FPS
Count of elements : 28
Stream size : 1.13 KiB (0%)
Title : [Forced]
Language : Tamil
Default : No
Forced : Yes

Text #52
ID : 58
Format : UTF-8
Codec ID : S_TEXT/UTF8
Codec ID/Info : UTF-8 Plain Text
Duration : 1 h 35 min
Bit rate : 1 b/s
Frame rate : 0.004 FPS
Count of elements : 25
Stream size : 1.06 KiB (0%)
Title : [Forced]
Language : Telugu
Default : No
Forced : Yes

Text #53
ID : 59
Format : UTF-8
Codec ID : S_TEXT/UTF8
Codec ID/Info : UTF-8 Plain Text
Duration : 1 h 38 min
Bit rate : 55 b/s
Frame rate : 0.102 FPS
Count of elements : 603
Stream size : 40.2 KiB (0%)
Language : Thai
Default : No
Forced : No

Text #54
ID : 60
Format : UTF-8
Codec ID : S_TEXT/UTF8
Codec ID/Info : UTF-8 Plain Text
Duration : 40 min 31 s
Bit rate : 1 b/s
Frame rate : 0.005 FPS
Count of elements : 11
Stream size : 551 Bytes (0%)
Title : [Forced]
Language : Thai
Default : No
Forced : Yes

Text #55
ID : 61
Format : UTF-8
Codec ID : S_TEXT/UTF8
Codec ID/Info : UTF-8 Plain Text
Duration : 1 h 43 min
Bit rate : 21 b/s
Frame rate : 0.083 FPS
Count of elements : 515
Stream size : 16.3 KiB (0%)
Language : Turkish
Default : No
Forced : No

Text #56
ID : 62
Format : UTF-8
Codec ID : S_TEXT/UTF8
Codec ID/Info : UTF-8 Plain Text
Duration : 40 min 31 s
Bit rate : 0 b/s
Frame rate : 0.004 FPS
Count of elements : 10
Stream size : 204 Bytes (0%)
Title : [Forced]
Language : Turkish
Default : No
Forced : Yes

Text #57
ID : 63
Format : UTF-8
Codec ID : S_TEXT/UTF8
Codec ID/Info : UTF-8 Plain Text
Duration : 1 h 43 min
Bit rate : 33 b/s
Frame rate : 0.097 FPS
Count of elements : 597
Stream size : 25.0 KiB (0%)
Language : Ukrainian
Default : No
Forced : No

Text #58
ID : 64
Format : UTF-8
Codec ID : S_TEXT/UTF8
Codec ID/Info : UTF-8 Plain Text
Duration : 1 h 24 min
Bit rate : 5 b/s
Frame rate : 0.012 FPS
Count of elements : 59
Stream size : 3.27 KiB (0%)
Title : [Forced]
Language : Ukrainian
Default : No
Forced : Yes

Text #59
ID : 65
Format : UTF-8
Codec ID : S_TEXT/UTF8
Codec ID/Info : UTF-8 Plain Text
Duration : 1 h 38 min
Bit rate : 29 b/s
Frame rate : 0.099 FPS
Count of elements : 585
Stream size : 21.5 KiB (0%)
Language : Vietnamese
Default : No
Forced : No

Text #60
ID : 66
Format : UTF-8
Codec ID : S_TEXT/UTF8
Codec ID/Info : UTF-8 Plain Text
Duration : 1 h 38 min
Bit rate : 22 b/s
Frame rate : 0.103 FPS
Count of elements : 604
Stream size : 16.2 KiB (0%)
Title : [Simplified]
Language : Chinese (Simplified)
Default : No
Forced : No

Text #61
ID : 67
Format : UTF-8
Codec ID : S_TEXT/UTF8
Codec ID/Info : UTF-8 Plain Text
Duration : 1 h 38 min
Bit rate : 22 b/s
Frame rate : 0.103 FPS
Count of elements : 609
Stream size : 16.2 KiB (0%)
Title : [Traditional]
Language : Chinese (Traditional)
Default : No
Forced : No

Menu
00:00:00.000 : en:Part 01
01:38:53.000 : en:Credits

744ca943b6e184658899a9208926ea1e
f889c39691badd7c879480c0768189a9
50f15b6081223901a78143de0d37c704
d53cee2a4ef0bfe917eca1dd2cdb6192
d8c5a7a2e90388a827c9f619a0e04ed6
70d7549ad9cd99f182d00f6e19c42298
d0254c191d366f868a3144b12b83b21b
5280d830466442fa757efc5577732ded
88ff2d271ebf836ce35bac3fb91e53e8
ec352f501fb2399de7bcb29dc7ea01e3