PXT24

PXT24

The.Walking.Dead.The.Ones.Who.Live.S01.720p.WEBRip.x265-PROTON
  • Category
    : TV
  • Type
    : HEVC/x265
  • Language
    : English
  • Total size
    : 3.30 GB
  • Date uploaded
    : 02 Apr ,2024

INFO

General
Complete name : The.Walking.Dead.The.Ones.Who.Live.S01E01.720p.WEBRip.x265-PROTON.mp4
Format : MPEG-4
Format profile : Base Media
Codec ID : isom (isom/iso2/mp41)
File size : 621 MiB
Duration : 1 h 0 min
Overall bit rate : 1 423 kb/s
Writing application : Hybrik 1.247.21

Video
ID : 1
Format : HEVC
Format/Info : High Efficiency Video Coding
Format profile : [email protected]@Main
Codec ID : hvc1
Codec ID/Info : High Efficiency Video Coding
Duration : 1 h 0 min
Bit rate : 1 194 kb/s
Width : 1 280 pixels
Height : 640 pixels
Display aspect ratio : 2.000
Frame rate mode : Constant
Frame rate : 23.976 (24000/1001) FPS
Color space : YUV
Chroma subsampling : 4:2:0
Bit depth : 8 bits
Scan type : Progressive
Bits/(Pixel*Frame) : 0.061
Stream size : 521 MiB (84%)
Language : English
Color range : Limited
Color primaries : BT.709
Transfer characteristics : BT.709
Matrix coefficients : BT.709
Codec configuration box : hvcC

Audio
ID : 2
Format : AAC LC
Format/Info : Advanced Audio Codec Low Complexity
Codec ID : mp4a-40-2
Duration : 1 h 0 min
Source duration : 1 h 0 min
Bit rate mode : Constant
Bit rate : 224 kb/s
Channel(s) : 6 channels
Channel layout : C L R Ls Rs LFE
Sampling rate : 48.0 kHz
Frame rate : 46.875 FPS (1024 SPF)
Compression mode : Lossy
Stream size : 97.7 MiB (16%)
Source stream size : 97.7 MiB (16%)
Language : English
Default : Yes
Alternate group : 1

SCREENSHOTS

The-Walking-Dead-The-Ones-Who-Live-S01-E01-720p-WEBRip-x265-PROTON-002
The-Walking-Dead-The-Ones-Who-Live-S01-E01-720p-WEBRip-x265-PROTON-005
The-Walking-Dead-The-Ones-Who-Live-S01-E01-720p-WEBRip-x265-PROTON-008

===============================================================

PLEASE SEED FOR 48-72H!

===============================================================

The.Walking.Dead.The.Ones.Who.Live.S01.720p.WEBRip.x265-PROTON

Subs

The.Walking.Dead.The.Ones.Who.Live.S01E01.720p.WEBRip.x265-PROTON

The.Walking.Dead.The.Ones.Who.Live.S01E02.720p.WEBRip.x265-PROTON

The.Walking.Dead.The.Ones.Who.Live.S01E03.720p.WEBRip.x265-PROTON

The.Walking.Dead.The.Ones.Who.Live.S01E04.720p.WEBRip.x265-PROTON

The.Walking.Dead.The.Ones.Who.Live.S01E05.720p.WEBRip.x265-PROTON

The.Walking.Dead.The.Ones.Who.Live.S01E06.720p.WEBRip.x265-PROTON