PXT24

PXT24

Wallace and Gromit: A Grand Day Out (1989) 1080p Blu-Ray AV1 Opus 5.1 [DemAV1R]
  • Category
    : Movies
  • Type
    : HD
  • Language
    : English
  • Total size
    : 974.70 MB
  • Date uploaded
    : 10 Jul ,2024

All videos uploaded to this account are ripped, encoded and shared by me. Unless specified otherwise. In this case, I pulled the torrent from a file that had unofficial Russian audio tracks. These were removed. No idea who I should credit since I pulled them from an unnamed location on Debrid Media Manager as it's all I could find. Sorry to whoever uploaded this!

image

Wallace and Gromit: A Grand Day Out (1989)

Media Info:
Code: General
Unique ID                                : 312091253707802193426150685644993310503 (0xEACA96CE957E301B7437E223739BAF27)
Complete name                            : W+G.A.Grand.Day.Out.1989.1080p.Blu-Ray.AV1.Opus-5.1-DemAV1R.mkv
Format                                   : Matroska
Format version                           : Version 4
File size                                : 975 MiB
Duration                                 : 23 min 57 s
Overall bit rate                         : 5 688 kb/s
Frame rate                               : 24.000 FPS
Encoded date                             : 2024-07-10 06:11:50 UTC
Writing application                      : mkvmerge v65.0.0 ('Too Much') 64-bit
Writing library                          : libebml v1.4.2 + libmatroska v1.6.3 / Lavf61.1.100

Video
ID                                       : 1
Format                                   : AV1
Format/Info                              : AOMedia Video 1
Format profile                           : [email protected]
Codec ID                                 : V_AV1
Duration                                 : 23 min 57 s
Bit rate                                 : 5 354 kb/s
Width                                    : 1 424 pixels
Height                                   : 1 072 pixels
Display aspect ratio                     : 4:3
Frame rate mode                          : Constant
Frame rate                               : 24.000 FPS
Color space                              : YUV
Chroma subsampling                       : 4:2:0
Bit depth                                : 10 bits
Bits/(Pixel*Frame)                       : 0.146
Stream size                              : 917 MiB (94%)
Writing library                          : Lavc61.3.100 libsvtav1
Default                                  : Yes
Forced                                   : No
Color range                              : Limited
Color primaries                          : BT.709
Transfer characteristics                 : BT.709
Matrix coefficients                      : BT.709

Audio #1
ID                                       : 5
Format                                   : Opus
Codec ID                                 : A_OPUS
Duration                                 : 23 min 57 s
Bit rate                                 : 235 kb/s
Channel(s)                               : 6 channels
Channel layout                           : L R C Lb Rb LFE
Sampling rate                            : 48.0 kHz
Frame rate                               : 50.000 FPS (960 SPF)
Bit depth                                : 32 bits
Compression mode                         : Lossy
Stream size                              : 40.2 MiB (4%)
Title                                    : Original
Writing library                          : Lavc61.3.100 libopus
Language                                 : English
Default                                  : Yes
Forced                                   : No