PXT24

PXT24

Wild Wild Punjab (2024)1080p WEBDL [ProtonMovies]
  • Category
    : Movies
  • Type
    : Bollywood
  • Language
    : Hindi
  • Total size
    : 2.30 GB
  • Date uploaded
    : 10 Jul ,2024

Wild Wild Punjab (2024)1080p WEBDL [ProtonMovies]

Proudly Provided by ProtonMovies

Info -
IMDB - imdb.com/title/tt31514262

Plot -
Khanne has had a breakup. He's upset, but he has friends like Arore, Jainu and Honey Paaji who encourage him to face this breakup head-on and move on. They embark on a trip across Punjab to help Khanne find the closure he desires.

ProtonMovies Profile --> 1337x.to/user/ProtonMovies

DON'T FORGET TO SEED!!! SEEDING ENABLES US TO PROVIDE QUALITY SHARES

Language :-
1. Hindi


Screenshots :-
Screenshot-Proton-Movies-1
Screenshot-Proton-Movies-2
Screenshot-Proton-Movies-3
Screenshot-Proton-Movies-4

File Info :

Quote:

General
Complete name : Wild Wild Punjab (2024)1080p WEBDL [ProtonMovies].mkv
Format : Matroska
Format version : Version 4
File size : 2.27 GiB
Duration : 1 h 50 min
Overall bit rate : 2 941 kb/s
Frame rate : 24.000 FPS
Movie name : Wild Wild Punjab (2024)1080p WEBDL [ProtonMovies]
Description : Four friends road-trip across Punjab to help one of them get over an ex-girlfriend, but are quickly caught in a fiasco like no other.
Writing application : Lavf60.3.100
Writing library : Lavf60.3.100
Cover : Yes
ErrorDetectionType : Per level 1
Attachments : cover.png
DATE : 2024

Video
ID : 1
Format : HEVC
Format/Info : High Efficiency Video Coding
Format profile : Main 10@L4@Main
HDR format : SMPTE ST 2086, HDR10 compatible
Codec ID : V_MPEGH/ISO/HEVC
Duration : 1 h 50 min
Bit rate : 2 242 kb/s
Width : 1 920 pixels
Height : 1 080 pixels
Display aspect ratio : 16:9
Frame rate mode : Constant
Frame rate : 24.000 FPS
Color space : YUV
Chroma subsampling : 4:2:0 (Type 2)
Bit depth : 10 bits
Bits/(Pixel*Frame) : 0.045
Stream size : 1.73 GiB (76%)
Title : 265:fmt=265:moovts=-1:fps=24:deps:par=auto:hdr=none:[email protected]
Default : Yes
Forced : No
Color range : Limited
Color primaries : BT.2020
Transfer characteristics : PQ
Matrix coefficients : BT.2020 non-constant
Mastering display color primaries : Display P3
Mastering display luminance : min: 0.0001 cd/m2, max: 1000 cd/m2
Maximum Content Light Level : 1185 cd/m2
Maximum Frame-Average Light Level : 558 cd/m2
VENDOR_ID : [0][0][0][0]

Audio
ID : 2
Format : E-AC-3
Format/Info : Enhanced AC-3
Commercial name : Dolby Digital Plus
Codec ID : A_EAC3
Duration : 1 h 50 min
Bit rate mode : Constant
Bit rate : 640 kb/s
Channel(s) : 6 channels
Channel layout : L R C LFE Ls Rs
Sampling rate : 48.0 kHz
Frame rate : 31.250 FPS (1536 SPF)
Bit depth : 32 bits
Compression mode : Lossy
Stream size : 506 MiB (22%)
Title : Hindi [Original]
Language : Hindi
Service kind : Complete Main
Default : Yes
Forced : No
VENDOR_ID : [0][0][0][0]
Dialog Normalization : -24 dB
compr : -0.28 dB
dialnorm_Average : -24 dB
dialnorm_Minimum : -24 dB
dialnorm_Maximum : -24 dB

Text #1
ID : 3
Format : UTF-8
Codec ID : S_TEXT/UTF8
Codec ID/Info : UTF-8 Plain Text
Duration : 1 h 37 min
Title : English [ForcedNarrative]
Writing library : Lavc60.3.100 srt
Language : English (IN)
Default : Yes
Forced : No

Text #2
ID : 4
Format : UTF-8
Codec ID : S_TEXT/UTF8
Codec ID/Info : UTF-8 Plain Text
Duration : 1 h 42 min
Title : English
Writing library : Lavc60.3.100 srt
Language : English (IN)
Default : No
Forced : No

Text #3
ID : 5
Format : UTF-8
Codec ID : S_TEXT/UTF8
Codec ID/Info : UTF-8 Plain Text
Duration : 1 h 42 min
Title : English
Writing library : Lavc60.3.100 srt
Language : English (IN)
Default : No
Forced : No





Wild Wild Punjab (2024)1080p WEBDL [ProtonMovies]